<?xml version="1.0" standalone="no"?>
<!DOCTYPE svg PUBLIC "-//W3C//DTD SVG 1.1//EN" "http://www.w3.org/Graphics/SVG/1.1/DTD/svg11.dtd">
<svg xmlns="http://www.w3.org/2000/svg">
<metadata>Generated by Fontastic.me</metadata>
<defs>
<font id="budicon" horiz-adv-x="512">
<font-face font-family="budicon" units-per-em="512" ascent="480" descent="-32"/>
<missing-glyph horiz-adv-x="512" />

<glyph unicode="&#57344;" d="M449 440l-81 0 0 62-224 0 0-62-81 0c-35 0-63-28-63-63l0-304c0-35 28-63 63-63l386 0c35 0 63 28 63 63l0 304c0 35-28 63-63 63z m-285 41l184 0 0-41-184 0z m328-409c0-23-19-41-41-41l-390 0c-22 0-41 18-41 41l0 307c0 22 19 41 41 41l390 0c22 0 41-19 41-41z m-226 245l-20 0 0-82-82 0 0-20 82 0 0-82 20 0 0 82 82 0 0 20-82 0z"/>
<glyph unicode="&#57345;" d="M480 512l-386 0c-18 0-33-14-33-32l0-9-29 0c-18 0-32-14-32-31l0-368c0-17 14-31 32-31l29 0 0-9c0-18 15-32 33-32l386 0c18 0 32 14 32 32l0 448c0 18-14 32-32 32z m-419-451l-20 0c-11 0-21 10-21 21l0 348c0 11 10 21 21 21l20 0z m431-20c0-11-10-21-21-21l-369 0c-11 0-20 10-20 21l0 430c0 11 9 20 20 20l369 0c11 0 21-9 21-20l0-430z m-144 175c-22 14-59 13-93-4-41-22-61-60-44-87 17-26 65-31 107-9 33 17 52 44 50 68l1 0 0 226-21 0z m-41-81c-32-16-67-15-78 1-12 16 5 42 38 58 32 15 67 15 78-2 11-16-6-41-38-57z"/>
<glyph unicode="&#57346;" d="M256 301c-6 0-11-5-11-12l0-133c0-6 5-11 11-11 6 0 11 5 11 11l0 133c0 7-5 12-11 12z m0 200l-256-490 512 0z m0-48l220-419-440 0z m-11-353l22 0 0 22-22 0z"/>
<glyph unicode="&#57347;" d="M512 256c0 3-2 6-4 8 0 0 0 1 0 1l-87 87c-4 5-12 5-17 0-5-5-5-13 0-17l67-68-204 0 0 205 68-68c5-4 13-4 17 0 5 5 5 13 0 18l-86 86c-2 2-3 2-5 2 0 0-1 1-1 1-2 0-2 1-4 1-1 0-2-1-3-1-1 0-1-1-2-1-1 0-3 0-4-2l-87-86c-5-5-5-13 0-18 5-4 13-4 17 0l68 68 0-205-205 0 68 68c4 5 4 12 0 17-5 5-13 5-18 0l-86-87c-1-1-1-3-2-4 0-1 0-1-1-2 0-1-1-2 0-3-1-1 0-2 0-3 1-1 1-2 1-2 1-1 1-3 2-4l86-87c5-5 13-5 18 0 4 5 4 13 0 17l-68 68 205 0 0-205-68 68c-5 4-13 4-18 0-4-5-4-13 0-18l87-86c2-2 4-2 6-3 0 0 0 0 0 0 1 0 3-1 4-1 1 0 2 1 3 1 1 0 2 1 3 1 1 1 2 1 3 2l87 86c5 5 5 13 0 18-5 4-12 4-17 0l-68-68 0 205 205 0-68-68c-5-5-5-13 0-18 5-5 13-5 17 0l87 87c1 1 1 2 1 3 2 2 3 4 3 7z"/>
<glyph unicode="&#57348;" d="M502 327c5 0 10 5 10 11l0 163c0 3-1 6-3 8-2 2-5 3-8 3l-163 0c-6 0-10-5-10-11 0-5 4-10 10-10l139 0-221-221-221 221 139 0c6 0 10 5 10 10 0 6-4 11-10 11l-163 0c-3 0-6-1-8-3-2-2-3-5-3-8l0-163c0-6 5-11 10-11 6 0 11 5 11 11l0 139 221-221-221-221 0 139c0 6-5 10-11 10-5 0-10-4-10-10l0-164c0-5 5-10 10-10l164 0c6 0 10 5 10 10 0 6-4 10-10 10l-139 0 221 221 221-221-139 0c-6 0-10-4-10-10 0-5 4-10 10-10l164 0c5 0 10 5 10 10l0 164c0 6-5 10-10 10-6 0-11-4-11-10l0-139-221 221 221 221 0-139c0-6 5-11 11-11z"/>
<glyph unicode="&#57349;" d="M222 222c-2 3-5 3-8 3l-162 0c-6 0-11-5-11-10 0-6 5-11 11-11l138 0-187-186c-4-4-4-11 0-15 4-4 11-4 15 0l187 187 0-139c0-6 5-10 10-10 6 0 11 4 11 10l0 164c0 3-2 5-4 7 0 0 0 0 0 0z m287 287c-4 4-11 4-15 0l-186-187 0 138c0 6-5 11-11 11-5 0-10-5-10-11l0-162c0-3 0-6 3-8 0 0 0 0 0 0 2-2 4-4 7-4l164 0c6 0 10 5 10 11 0 5-4 10-10 10l-139 0 187 187c4 4 4 11 0 15z"/>
<glyph unicode="&#57350;" d="M509 509c0 0 0 0 0 0-3 2-6 3-9 3l-162 0c-6 0-10-5-10-11 0-5 4-10 10-10l138 0-186-186c-5-4-5-11 0-15 4-4 10-4 15 0l187 187 0-139c0-6 4-11 10-11 5 0 10 5 10 11l0 163c0 3-1 6-3 8z m-302-287l-186-186 0 138c0 6-5 10-10 10-6 0-10-4-10-10l0-162c-1-3 0-6 2-9 0 0 0 0 0 0 2-2 5-3 8-3l163 0c6 0 11 5 11 10 0 6-5 10-11 10l-139 0 187 187c4 5 4 11 0 15-4 5-11 5-15 0z"/>
<glyph unicode="&#57351;" d="M512 0l-51 195-62-62-266 266 62 62-195 51 51-195 62 62 266-266-62-62z"/>
<glyph unicode="&#57352;" d="M461 317l51 195-194-51 61-62-266-266-62 61-51-194 194 51-61 61 266 267z"/>
<glyph unicode="&#57353;" d="M505 403c-7 3-16 1-20-5l-229-258-229 258c-4 6-13 8-20 5-7-4-9-12-5-18l241-271c2-4 7-6 12-6 0 0 1 0 1 0 0 0 1 0 1 0 5 0 10 2 12 6l241 271c4 6 2 14-5 18z"/>
<glyph unicode="&#57354;" d="M427 191c5 4 5 11 0 15-4 5-11 5-15 0l-144-164 0 458c0 7-6 12-12 12-6 0-12-5-12-12l0-458-144 164c-4 5-11 5-15 0-5-4-5-11 0-15l162-186c0-1 0-1 1-2 1 0 2 0 2-1 1 0 2-1 3-1 1 0 2-1 3-1 1 0 2 1 3 1 1 0 2 1 3 1 0 1 1 1 2 1 1 1 1 1 1 2 0 0 0 0 0 0z"/>
<glyph unicode="&#57355;" d="M512 256l-134 78 0-67-244 0 0 67-134-78 134-78 0 67 244 0 0-67z"/>
<glyph unicode="&#57356;" d="M398 27l-258 229 258 229c6 4 8 13 5 20-4 7-12 9-18 5l-271-241c-4-2-6-7-6-12 0 0 0-1 0-1 0 0 0-1 0-1 0-5 2-10 6-12l271-241c6-4 14-2 18 5 3 7 1 16-5 20z"/>
<glyph unicode="&#57357;" d="M500 268l-458 0 164 144c5 4 5 11 0 16-4 4-11 4-15 0l-186-163c-1 0-1 0-2-1-1-1 0-2-1-2 0-1-1-2-1-3 0-1-1-2-1-3 0-1 1-2 1-3 0-1 1-2 1-2 1-1 0-2 1-3 1-1 1-1 2-1l186-163c4-4 11-4 15 0 5 5 5 12 0 16l-164 144 458 0c7 0 12 6 12 12 0 6-5 12-12 12z"/>
<glyph unicode="&#57358;" d="M507 507c-6 7-15 7-22 0l-453-453 0 347c0 9-7 16-16 16-9 0-16-7-16-16l0-385c0 0 0 0 0 0 0-4 2-8 5-11 3-4 7-5 11-5 0 0 0 0 0 0l385 0c9 0 16 7 16 16 0 9-7 16-16 16l-347 0 453 454c7 6 7 15 0 21z"/>
<glyph unicode="&#57359;" d="M507 26l-453 454 347 0c9 0 16 7 16 16 0 9-7 16-16 16l-385 0c0 0 0 0 0 0-4 0-8-1-11-5-3-3-5-7-5-11 0 0 0 0 0 0l0-385c0-9 7-16 16-16 9 0 16 7 16 16l0 347 454-453c6-7 15-7 21 0 7 6 7 15 0 21z"/>
<glyph unicode="&#57360;" d="M404 256c0 0 0 1 0 1 0 5-2 10-6 12l-271 241c-6 4-14 2-18-5-3-7-1-16 5-20l258-229-258-229c-6-4-8-13-5-20 4-7 12-9 18-5l271 241c4 2 6 7 6 12 0 0 0 1 0 1z"/>
<glyph unicode="&#57361;" d="M512 256c0 1-1 2-1 3 0 1-1 2-1 3-1 1-1 2-1 2-1 1-1 1-2 1 0 0 0 0 0 0l-186 162c-4 5-11 5-15 0-5-4-5-11 0-15l164-144-458 0c-7 0-12-6-12-12 0-6 5-12 12-12l458 0-164-144c-5-4-5-11 0-15 4-5 11-5 15 0l186 162c1 0 1 0 2 1 0 1 0 2 1 2 0 1 1 2 1 3 0 1 1 2 1 3z"/>
<glyph unicode="&#57362;" d="M512 401c0 8-7 16-16 16-9 0-16-8-16-16l0-347-454 453c-6 6-15 6-21 0-7-6-7-16 0-22l453-453-347 0c-9 0-16-7-16-16 0-8 7-16 16-16l385 0c0 0 0 1 0 1 4 0 8 1 11 4 3 3 5 7 5 11 0 0 0 0 0 1l0 384z"/>
<glyph unicode="&#57363;" d="M512 496c0 4-2 8-5 11-3 4-7 5-11 5 0 0 0 0 0 0l-385 0c-9 0-16-7-16-16 0-9 7-16 16-16l347 0-453-454c-7-6-7-15 0-21 6-7 15-7 21 0l454 453 0-347c0-9 7-16 16-16 9 0 16 7 16 16l0 385c0 0 0 0 0 0z"/>
<glyph unicode="&#57364;" d="M510 127l-241 271c-2 4-7 6-12 6 0 0-1 0-1 0 0 0-1 0-1 0-5 0-10-2-12-6l-241-271c-4-6-2-14 5-18 7-3 16-1 20 5l229 258 229-258c4-6 13-8 20-5 7 4 9 12 5 18z"/>
<glyph unicode="&#57365;" d="M427 321l-162 186c0 1 0 1-1 2-1 1-2 0-3 1 0 0-1 1-2 1-1 0-2 1-3 1-1 0-2-1-3-1-1 0-2-1-2-1-1-1-2 0-3-1-1-1-1-1-1-2l-162-186c-5-4-5-11 0-15 4-5 11-5 15 0l144 164 0-458c0-7 6-12 12-12 6 0 12 5 12 12l0 458 144-164c4-5 11-5 15 0 5 4 5 11 0 15z"/>
<glyph unicode="&#57366;" d="M267 378l67 0-78 134-78-134 67 0 0-244-67 0 78-134 78 134-67 0z"/>
<glyph unicode="&#57367;" d="M495 319l-268-257c-44-42-124-42-168 0-43 41-43 119 0 161l235 225c33 32 100 33 125 9 24-24 26-89-8-122 28 27 36 35 0 0-64-61-234-225-234-225-15-14-51-16-68 0-14 14-14 50 0 64l218 210-16 16-218-210c-28-27-29-69 0-96 28-28 71-27 100 0l235 225c44 42 52 111 8 154-45 43-115 33-159-9l-235-225c-57-56-56-141 0-193 47-44 151-49 202 0l268 257z"/>
<glyph unicode="&#57368;" d="M456 129c-14 13-120 49-137 55 50 32 80 101 80 166 0 90-26 162-143 162-117 0-143-72-143-162 0-67 33-139 86-170-37-11-130-39-143-51-24-23-36-82-12-117 0 0 18-12 212-12 193 0 212 12 212 12 24 35 12 94-12 117z m-1-100c-14-2-61-9-199-9-138 0-185 7-199 9-13 28-3 70 13 85 11 8 84 32 148 50l5 0 5 23 0 2c-59 18-95 94-95 162 0 78 21 141 123 141 103 0 123-63 123-141 0-60-27-125-74-153l0-11 5-23 4 0c55-18 118-42 128-50 16-15 26-57 13-85z"/>
<glyph unicode="&#57369;" d="M257 168c32 31 51 84 51 133 0 77-21 139-113 139-93 0-114-62-114-139 0-50 19-102 52-133-34-8-100-25-110-33-22-19-33-66-11-95 0 0 12-9 183-9 172 0 182 9 182 9 22 29 11 76-10 95-10 8-77 25-110 33z m107-111c-13-2-52-6-169-6-117 0-157 4-170 6-10 20-1 51 11 62 6 4 33 13 102 29l36 9-27 25c-27 26-45 73-45 119 0 86 26 119 92 119 67 0 93-33 93-119 0-46-17-92-45-119l-26-25 36-8c68-17 95-26 101-30 13-11 21-42 11-62z m126 119c-10 8-77 25-110 33 32 31 51 83 51 133 0 77-21 139-114 139-28 0-49-6-66-17 14-1 25-3 36-6 9 2 19 3 30 3 67 0 93-33 93-119 0-46-18-92-45-119l-26-25 36-8c68-17 95-26 101-30 12-11 21-42 11-62-8-1-28-3-71-5 0-7-2-14-4-20 82 3 88 8 88 8 22 29 11 76-10 95z"/>
<glyph unicode="&#57370;" d="M459 477l-140 35-43-123 15-24 43 121 96-24-65-185c-28 25-64 41-105 43l-67 192-140-35 77-219c-21-27-34-61-34-98 0-88 72-160 160-160 88 0 160 72 160 160 0 37-13 71-34 98z m-377-15l96 24 59-168c-34-4-65-19-90-41z m313-302c0-77-62-139-139-139-77 0-139 62-139 139 0 77 62 139 139 139 77 0 139-62 139-139z m-171 32l21 0 0-107 22 0 0 128-43 0z"/>
<glyph unicode="&#57371;" d="M256 450c-73 0-133-59-133-133 0-73 60-133 133-133 73 0 133 60 133 133 0 74-60 133-133 133z m0-245c-62 0-113 50-113 112 0 62 51 113 113 113 62 0 112-51 112-113 1-62-50-112-112-112z m255-89c0 0 0 1-1 1 0 1 0 2-1 3l-82 106c15 27 23 58 23 91 0 108-87 195-194 195-107 0-194-87-194-195 0-33 8-64 23-92l-82-105c-1 0-1-2-1-3-1 0-1-1-1-1 0-2-1-3 0-4 0-2 0-3 1-5 1 0 1-1 1-1 0 0 0 0 1 0 2-2 5-3 8-3l91 0 0-91c-1-3 0-6 2-8 1-1 2-1 2-1 2-2 4-3 6-3 3 0 6 2 8 5l135 115 135-115c2-3 5-5 8-5 2 0 4 1 6 3 1 0 1 0 2 1 2 2 3 5 2 8l0 91 91 0c3 0 6 1 8 3 1 0 1 0 1 0 0 0 0 1 1 1 1 2 1 3 1 5 1 1 0 2 0 4z m-388-82l0 77c0 0 0 1 0 1 0 0 0 1 0 1 0 2-1 4-2 6-1 0-1 0-1 1 0 0-1 0-1 0-1 2-4 3-6 3 0 0 0 0-1 0 0 0 0 0-1 0l-81 0 66 84c30-44 79-75 134-82z m-41 283c0 96 78 174 174 174 96 0 174-78 174-174 0-95-78-173-174-173-96 0-174 78-174 173z m319-194c-1 0-1 0-1 0-1 0-1 0-1 0-2 0-4-1-6-3 0 0-1 0-1 0 0-1 0-1 0-1-2-2-3-4-3-6 0 0 0-1 0-1 0 0 0-1 0-1l0-77-107 91c55 7 103 38 134 82l66-84-81 0z"/>
<glyph unicode="&#57372;" d="M384 21l-256 0c-6 0-11-4-11-10 0-6 5-11 11-11l256 0c6 0 11 5 11 11 0 6-5 10-11 10z m96 427l-85 0 0 64-278 0 0-64-85 0c0 0-21 0-21-21 0-41 9-137 108-149 9-69 61-122 126-128l0-86-53 0c-6 0-11-5-11-11 0-6 5-10 11-10l128 0c6 0 11 4 11 10 0 6-5 11-11 11l-53 0 0 86c65 6 117 59 126 128 99 12 108 108 108 149 0 21-21 21-21 21z m-363-148c-69 11-85 73-85 127 0 0 0 0 1 0l84 0z m256-13c0-64-52-116-117-116-65 0-117 52-117 116l0 204 234 0z m22 13l0 127 84 0c1 0 1 0 1 0 0-54-16-116-85-127z"/>
<glyph unicode="&#57373;" d="M348 375l0 106-348-225 348-225 0 106 164-106 0 450z m144-307l-164 106 0-106-290 188 290 188 0-106 164 106z"/>
<glyph unicode="&#57374;" d="M410 328l-1 0c-8 103-73 184-153 184-80 0-145-81-153-184l-1 0c-34 0-61-30-61-66l31-196c0-37 27-66 61-66l246 0c34 0 61 29 61 66l31 196c0 36-27 66-61 66z m-154 164c69 0 125-72 132-164l-264 0c7 92 63 164 132 164z m162-438c0-19-14-34-32-34l-260 0c-18 0-32 15-32 34l-17 118c43-36 99-70 179-70 82 0 136 34 179 70z m23 156c-23-46-90-84-185-84-95 0-162 38-185 84l-10 64c0 18 15 33 33 33l324 0c18 0 33-15 33-33z m-185 36c-17 0-31-14-31-31 0-17 14-31 31-31 17 0 31 14 31 31 0 17-14 31-31 31z"/>
<glyph unicode="&#57375;" d="M480 85c0 0-64 76-64 128l0 86c0 25 0 42 0 42l-1 0c0 4 1 7 1 11 0 88-72 160-160 160-88 0-160-72-160-160 0-4 1-7 1-11l-1 0c0 0 0-17 0-42l0-86c0-53-64-128-64-128l151 0c-1-3-2-7-2-10 0-42 34-75 75-75 41 0 75 33 75 75 0 3-1 7-2 10z m-363 256l1 0c0 4-1 7-1 11 0 77 62 139 139 139 77 0 139-62 139-139 0-4-1-7-1-11l1 0c0 0 0-17 0-42l-278 0c0 25 0 42 0 42z m278-64l0-42-278 0 0 42z m-320-170c0 0 42 53 42 106l0 0 278 0 0 0c0-52 42-106 42-106z m181-86c-29 0-53 24-53 54 0 3 1 7 1 10l103 0c1-3 2-7 2-10 0-30-24-54-53-54z"/>
<glyph unicode="&#57376;" d="M399 307c0 0 0 0-1 0l-1 0-29 112c0 0 1 0 1 1 0 1-1 1-1 2l0 0c-1 0-1 1-1 1 0 2-1 3-3 4-2 3-5 4-8 3l-80 0c-5 0-10-5-10-10 0-6 5-11 10-11l74 0 26-102-192 0 0 61 31 0c6 0 10 5 10 11 0 5-4 10-10 10l-82 0c-6 0-10-5-10-10 0-6 4-11 10-11l31 0 0-61-50 0c-1 0-1 0-1 0-63 0-113-50-113-113 0-62 50-112 113-112 58 0 106 45 111 102l64 0c5-57 53-102 111-102 63 0 113 50 113 112 0 63-50 113-113 113z m-286-123l91 0c-5-46-44-81-91-81-51 0-93 41-93 91 0 51 42 92 93 92 47 0 86-35 91-81l-91 0c-6 0-11-5-11-11 0-5 5-10 11-10z m111 21c-3 34-21 63-47 82l158 0c-26-19-44-48-47-82z m175-102c-51 0-92 41-92 91 0 45 32 82 75 91l29-114c1-5 7-9 12-7 5 1 9 7 7 13l-28 109c50-2 90-42 90-92 0-50-42-91-93-91z"/>
<glyph unicode="&#57377;" d="M430 410l0 102-102 0 0-102-41 0 0-103-62 0 0 103-41 0 0 102-102 0 0-102-41 0 0-410 184 0 0 164 62 0 0-164 184 0 0 410z m-328 82l62 0 0-82-62 0z m103-472l-144 0 0 82 144 0z m0 103l-144 0 0 266 144 0z m82 61l-62 0 0 103 62 0z m61 308l62 0 0-82-62 0z m103-472l-144 0 0 82 144 0z m0 103l-144 0 0 266 144 0z"/>
<glyph unicode="&#57378;" d="M369 246l-103 0c-5 0-10-5-10-10 0-6 5-11 10-11l103 0c5 0 10 5 10 11 0 5-5 10-10 10z m0 102l-103 0c-5 0-10-4-10-10 0-6 5-10 10-10l103 0c5 0 10 4 10 10 0 6-5 10-10 10z m60 164l-346 0c-18 0-32-14-32-32l0-448c0-18 14-32 32-32l81 0c0 0 0 0 0 0 0 0 0 0 0 0l265 0c18 0 32 14 32 32l0 448c0 18-14 32-32 32z m-275-491l-66 0c-9 0-16 7-16 16l0 438c0 9 7 17 16 17l66 0z m286 16c0-9-7-16-16-16l-250 0 0 471 250 0c9 0 16-8 16-17l0-438z"/>
<glyph unicode="&#57379;" d="M450 512l-347 0c-17 0-31-14-31-32l0-50-31 0c-6 0-10-5-10-10 0-6 4-10 10-10l31 0 0-82-31 0c-6 0-10-5-10-11 0-5 4-10 10-10l31 0 0-102-31 0c-6 0-10-5-10-10 0-6 4-11 10-11l31 0 0-82-31 0c-6 0-10-4-10-10 0-6 4-10 10-10l31 0 0-50c0-18 14-32 31-32l266 0c0 0 0 0 0 0 0 0 0 0 0 0l81 0c17 0 31 14 31 32l0 448c0 18-14 32-31 32z m-92-491l-250 0c-9 0-16 7-16 16l0 45 31 0c6 0 10 5 10 10 0 6-4 10-10 10l-31 0 0 82 31 0c6 0 10 5 10 11 0 5-4 10-10 10l-31 0 0 102 31 0c6 0 10 5 10 10 0 6-4 11-10 11l-31 0 0 82 31 0c6 0 10 4 10 10 0 5-4 10-10 10l-31 0 0 45c0 9 7 16 16 16l250 0z m103 16c0-9-7-16-16-16l-66 0 0 471 66 0c9 0 16-8 16-17z"/>
<glyph unicode="&#57380;" d="M471 62l0-1c0 0 0 0 0 0 0 1 0 1 0 1z m20 450l0 0-40 0 0 0c-1 0-2 0-3 0l-384 0c-35 0-64-28-64-61l0-390c0-34 28-61 63-61l345 0c1 0 1 0 2 0l0 0 102 0 0 512z m-368-21l143 0 0-227-60 42-11 8-12-8-60-42z m368-471l-81 0c0 0 0 0 0 0l-349 0c-22 0-41 19-41 41 0 8 3 15 7 21l55 0 0 0 410 0 0-62z m0 82l-40 0c0 0 0 0 0 0l-431 0 0 348c0 23 19 41 41 41l41 0 0-266 93 64 92-64 0 266 143 0 0 0 21 0 0 0 40 0z"/>
<glyph unicode="&#57381;" d="M490 512l0-3-234-31-234 31 0 3-22 0 0-445 5 0 240-64 0-3 22 0 0 3 240 64 5 0 0 445z m-245-486l-223 59 0 402 223-30z m245 57l-223-58 0 432 223 30z"/>
<glyph unicode="&#57382;" d="M311 178l67 0 0 22-67 0z m0 133l67 0 0 23-67 0z m0 67l67 0 0 23-67 0z m0-133l67 0 0 22-67 0z m-111 89l-67 0 0-23 67 0z m278 133l-33 0 0 11c0 19-15 34-34 34l-310 0c-19 0-34-15-34-34l0-11-33 0c-19 0-34-15-34-33l0-401c0-18 15-33 34-33l444 0c19 0 34 15 34 33l0 401c0 18-15 33-34 33z m-211 23l139 0c9 0 17-8 17-18l0-366c0-9-8-17-17-17l-139 0z m-178-18c0 10 8 18 17 18l139 0 0-401-139 0c-9 0-17 8-17 17z m401-433c0-9-8-17-17-17l-434 0c-9 0-17 8-17 17l0 389c0 10 8 17 17 17l28 0 0-344c0-19 15-34 34-34l144 0 0 0 22 0 0 0 144 0c19 0 34 15 34 34l0 344 28 0c9 0 17-7 17-17l0-389z m-290 161l-67 0 0-22 67 0z m0 201l-67 0 0-23 67 0z m0-134l-67 0 0-22 67 0z"/>
<glyph unicode="&#57383;" d="M67 378l0-22c0 0 22 22 48 22 38 0 85-22 85-22l0 22c0 0-47 23-85 23-26 0-48-23-48-23z m0-111l0-22c0 0 22 22 48 22 38 0 85-22 85-22l0 22c0 0-47 22-85 22-26 0-48-22-48-22z m0-111l0-22c0 0 22 22 48 22 38 0 85-22 85-22l0 22c0 0-47 22-85 22-26 0-48-22-48-22z m245 200c0 0 47 22 85 22 26 0 48-22 48-22l0 22c0 0-22 23-48 23-38 0-85-23-85-23z m65 156c-63 0-121-34-121-34 0 0-58 34-121 34-73 0-135-34-135-34l0-478c0 0 65 34 139 34 61 0 117-34 117-34 0 0 56 34 117 34 74 0 139-34 139-34l0 478c0 0-62 34-135 34z m-132-481c-24 11-63 25-106 25-47 0-89-12-117-22l0 430c20 9 65 26 113 26 56 0 109-31 110-31l0-1z m245 3c-28 10-70 22-117 22-43 0-82-14-106-25l0 427 0 1c1 0 54 31 110 31 48 0 93-17 113-26z m-178 233l0-22c0 0 47 22 85 22 26 0 48-22 48-22l0 22c0 0-22 22-48 22-38 0-85-22-85-22z m0-111l0-22c0 0 47 22 85 22 26 0 48-22 48-22l0 22c0 0-22 22-48 22-38 0-85-22-85-22z"/>
<glyph unicode="&#57384;" d="M399 184l-225 0c-6 0-10-4-10-10 0-6 4-10 10-10l225 0c6 0 11 4 11 10 0 6-5 10-11 10z m0 103l-225 0c-6 0-10-5-10-11 0-5 4-10 10-10l225 0c6 0 11 5 11 10 0 6-5 11-11 11z m0 102l-225 0c-6 0-10-4-10-10 0-6 4-10 10-10l225 0c6 0 11 4 11 10 0 6-5 10-11 10z m45 123l-376 0c-26 0-48-21-48-48l0-416c0-26 22-48 48-48l376 0c26 0 48 22 48 48l0 416c0 27-22 48-48 48z m27-451c0-22-18-41-41-41l-369 0c-11 0-20 10-20 21l0 430c0 11 9 20 20 20l21 0 0-471 20 0 0 471 328 0c23 0 41-18 41-40l0-390z"/>
<glyph unicode="&#57385;" d="M102 512l0-512 154 128 154-128 0 512z m287-468l-120 100-13 11-13-11-120-100 0 448 266 0z"/>
<glyph unicode="&#57386;" d="M480 492l-448 0c-18 0-32-14-32-31l0-123c0-17 14-31 32-31l11 0c-1-3-2-7-2-10l0-246c0-17 14-31 32-31l366 0c18 0 32 14 32 31l0 246c0 3-1 7-2 10l11 0c18 0 32 14 32 31l0 123c0 17-14 31-32 31z m-29-436c0-8-8-15-17-15l-356 0c-9 0-17 7-17 15l0 236c0 8 8 15 17 15l88 0c-1-3-2-7-2-10l0-61c0-17 14-31 31-31l122 0c17 0 31 14 31 31l0 61c0 3-1 7-2 10l88 0c9 0 17-7 17-15l0-236z m-267 184l0 67 15 0c0 0 1 0 1 0l112 0c0 0 1 0 1 0l15 0 0-67c0-8-7-15-16-15l-112 0c-9 0-16 7-16 15z m308 103c0-9-8-16-17-16l-438 0c-9 0-16 7-16 16l0 113c0 8 7 15 16 15l438 0c9 0 17-7 17-15l0-113z"/>
<glyph unicode="&#57387;" d="M460 512l-408 0c-17 0-32-14-32-32l0-448c0-18 15-32 32-32l408 0c17 0 32 14 32 32l0 448c0 18-15 32-32 32z m-419-492l82 82 266 0 82-82z m225 103l0 266 144 0 61 68 0-402-61 68-308 0-61-68 0 402 61-68 144 0 0-266z m119 287l-262 0-82 81 430 0z"/>
<glyph unicode="&#57388;" d="M448 430l-100 0 0 48c0 7-7 14-15 14l-154 0c-8 0-15-7-15-14l0-48-100 0c-35 0-64-28-64-63l0-283c0-35 29-63 64-63l38 0 0-1 21 0 0 1 266 0 0-1 21 0 0 1 38 0c35 0 64 28 64 63l0 283c0 35-29 63-64 63z m-346-389l-41 0c-22 0-41 18-41 41l0 287c0 22 19 41 41 41l41 0z m82 430l144 0 0-41-144 0z m-61-430l0 369 266 0 0-369z m369 41c0-23-19-41-41-41l-41 0 0 369 41 0c22 0 41-19 41-41z"/>
<glyph unicode="&#57389;" d="M448 430l-100 0 0 48c0 7-7 14-15 14l-154 0c-8 0-15-7-15-14l0-48-100 0c-35 0-64-28-64-63l0-284c0-34 29-63 64-63l384 0c35 0 64 29 64 63l0 284c0 35-29 63-64 63z m-264 41l144 0 0-41-144 0z m308-389c0-23-19-41-41-41l-390 0c-22 0-41 18-41 41l0 205 144 0 0-103 184 0 0 103 144 0z m-308 123l0 82 144 0 0-82z m308 102l-472 0 0 62c0 22 19 41 41 41l390 0c22 0 41-19 41-41z"/>
<glyph unicode="&#57390;" d="M246 405l42 0 0 43-42 0z m-86 0l43 0 0 43-43 0z m325 107l-458 0c-9 0-16-7-16-16l0-480c0-9 7-16 16-16l458 0c9 0 16 7 16 16l0 480c0 9-7 16-16 16z m-5-474c0-9-7-17-16-17l-416 0c-9 0-16 8-16 17l0 303 448 0z m0 325l-448 0 0 111c0 9 7 17 16 17l416 0c9 0 16-8 16-17l0-111z m-405 42l43 0 0 43-43 0z"/>
<glyph unicode="&#57391;" d="M75 405l43 0 0 43-43 0z m121-298l60 59 60-59 15 15-60 59 60 60-15 15-60-60-60 60-15-15 60-60-60-59z m-36 298l43 0 0 43-43 0z m86 0l42 0 0 43-42 0z m239 107l-458 0c-9 0-16-7-16-16l0-480c0-9 7-16 16-16l458 0c9 0 16 7 16 16l0 480c0 9-7 16-16 16z m-5-474c0-9-7-17-16-17l-416 0c-9 0-16 8-16 17l0 303 448 0z m0 325l-448 0 0 111c0 9 7 17 16 17l416 0c9 0 16-8 16-17l0-111z"/>
<glyph unicode="&#57392;" d="M75 405l43 0 0 43-43 0z m410 107l-458 0c-9 0-16-7-16-16l0-480c0-9 7-16 16-16l458 0c9 0 16 7 16 16l0 480c0 9-7 16-16 16z m-5-474c0-9-7-17-16-17l-416 0c-9 0-16 8-16 17l0 303 448 0z m0 325l-448 0 0 111c0 9 7 17 16 17l416 0c9 0 16-8 16-17l0-111z m-234 42l42 0 0 43-42 0z m-86 0l43 0 0 43-43 0z m75-316l4-4 134 156-15 15-126-146-79 61-14-15 92-71z"/>
<glyph unicode="&#57393;" d="M75 405l43 0 0 43-43 0z m85 0l43 0 0 43-43 0z m86 0l42 0 0 43-42 0z m239 107l-458 0c-9 0-16-7-16-16l0-480c0-9 7-16 16-16l458 0c9 0 16 7 16 16l0 480c0 9-7 16-16 16z m-5-474c0-9-7-17-16-17l-416 0c-9 0-16 8-16 17l0 303 448 0z m0 325l-448 0 0 111c0 9 7 17 16 17l416 0c9 0 16-8 16-17l0-111z m-235-278l22 0 0 86 85 0 0 21-85 0 0 85-22 0 0-85-85 0 0-21 85 0z"/>
<glyph unicode="&#57394;" d="M160 405l43 0 0 43-43 0z m-85 0l43 0 0 43-43 0z m410 107l-458 0c-9 0-16-7-16-16l0-480c0-9 7-16 16-16l458 0c9 0 16 7 16 16l0 480c0 9-7 16-16 16z m-5-474c0-9-7-17-16-17l-416 0c-9 0-16 8-16 17l0 303 448 0z m0 325l-448 0 0 111c0 9 7 17 16 17l416 0c9 0 16-8 16-17l0-111z m-234 42l42 0 0 43-42 0z m106-213l-192 0 0-21 192 0z"/>
<glyph unicode="&#57395;" d="M501 455l-25 25c-14 14-36 14-49 1l-204-200-52-51c-2-3-4-5-5-8-26 4-61 0-97-33-57-54 33-116-69-167 0 0 197-14 237 69 10 20 8 41 3 60 2 1 5 2 7 4l255 252c14 13 13 35-1 48z m-283-355c-20-41-98-54-159-57 18 26 15 53 13 75-3 26-4 40 12 56 29 27 58 31 79 27 1-7 4-14 9-20l26-24c5-6 13-9 20-10 5-15 7-32 0-47z m28 84c-13-13-33-13-46 0-12 12-12 32 0 45l38 37 46-45z m227 224l-174-172-46 45 175 172c12 12 33 12 45 0 13-13 13-33 0-45z"/>
<glyph unicode="&#57396;" d="M256 512c-122 0-221-99-221-221 0-84 47-157 116-195l0-96 210 0 0 96c69 38 116 111 116 195 0 122-99 221-221 221z m81-489l-162 0 0 70 162 0z m12 93l-12 0 0 0-162 0 0 0-12 0c-62 34-105 99-105 175 0 109 89 198 198 198 109 0 198-89 198-198 0-76-43-141-105-175z"/>
<glyph unicode="&#57397;" d="M481 82l0 40c0 1 0 1 0 1 0 0 0 0 0 1l0 60-2 0c1 4 2 8 2 12l0 284c0 18-14 32-32 32l-386 0c-18 0-32-14-32-32l0-284c0-4 1-8 2-12l-2 0 0-102 16 0c0 0 0 0 0 0l-17 0 0-21 42 0 0-51c0-5 4-10 10-10 6 0 10 5 10 10l0 51 328 0 0-51c0-5 4-10 10-10 6 0 10 5 10 10l0 51 42 0 0 21z m-389 0c-22 0-41 18-41 41 0 23 19 41 41 41 23 0 41-18 41-41 0-23-18-41-41-41z m46 0c10 11 16 25 16 41 0 16-6 30-16 41l236 0c-9-11-16-25-16-41 0-16 7-30 16-41z m282 0c-23 0-41 18-41 41 0 23 18 41 41 41 22 0 41-18 41-41 0-23-19-41-41-41z m41 123c0-1 0-1 0-1l0-20-410 0 0 20c0 0 0 0 0 1l0 164 410 0z m0 184l-410 0 0 82c0 11 9 21 21 21l368 0c12 0 21-10 21-21l0-82z m-266 41l122 0 0 21-122 0z"/>
<glyph unicode="&#57398;" d="M460 512l-408 0c-17 0-32-14-32-32l0-448c0-18 15-32 32-32l408 0c17 0 32 14 32 32l0 448c0 18-15 32-32 32z m11-471c0-11-9-21-20-21l-390 0c-11 0-20 10-20 21l0 348 430 0 0-348z m0 369l-430 0 0 61c0 11 9 20 20 20l390 0c11 0 20-9 20-20z m-123-328l62 0c11 0 20 9 20 20l0 62c0 11-9 20-20 20l-62 0c-11 0-20-9-20-20l0-62c0-11 9-20 20-20z m0 82l62 0 0-62-62 0z m0 61l62 0c11 0 20 9 20 21l0 61c0 11-9 21-20 21l-62 0c-11 0-20-10-20-21l0-61c0-12 9-21 20-21z m0 82l62 0 0-61-62 0z m-123-82l62 0c11 0 20 9 20 21l0 61c0 11-9 21-20 21l-62 0c-11 0-20-10-20-21l0-61c0-12 9-21 20-21z m0 82l62 0 0-61-62 0z m-123-82l62 0c11 0 20 9 20 21l0 61c0 11-9 21-20 21l-62 0c-11 0-20-10-20-21l0-61c0-12 9-21 20-21z m0 82l62 0 0-61-62 0z m123-225l62 0c11 0 20 9 20 20l0 62c0 11-9 20-20 20l-62 0c-11 0-20-9-20-20l0-62c0-11 9-20 20-20z m0 82l62 0 0-62-62 0z m-123-82l62 0c11 0 20 9 20 20l0 62c0 11-9 20-20 20l-62 0c-11 0-20-9-20-20l0-62c0-11 9-20 20-20z m0 82l62 0 0-62-62 0z"/>
<glyph unicode="&#57399;" d="M256 348c-74 0-133-59-133-133 0-73 59-133 133-133 74 0 133 60 133 133 0 74-59 133-133 133z m0-246c-62 0-113 51-113 113 0 62 51 113 113 113 62 0 113-51 113-113 0-62-51-113-113-113z m224 349l-235 0c-5 23-26 40-50 40l-82 0c-25 0-46-17-51-40l-30 0c-18 0-32-15-32-32l0-367c0-17 14-31 32-31l448 0c18 0 32 14 32 31l0 367c0 18-14 32-32 32z m-367 20l82 0c17 0 30-14 30-31 0-17-13-30-30-30l-82 0c-17 0-31 13-31 30 0 17 14 31 31 31z m379-414c0-9-8-16-17-16l-438 0c-9 0-16 7-16 16l0 357c0 9 7 16 16 16l25 0c5-23 26-41 51-41l82 0c24 0 45 18 50 41l230 0c9 0 17-7 17-16z"/>
<glyph unicode="&#57400;" d="M256 348c-74 0-133-59-133-133 0-73 59-133 133-133 74 0 133 60 133 133 0 74-59 133-133 133z m0-246c-62 0-113 51-113 113 0 62 51 113 113 113 62 0 113-51 113-113 0-62-51-113-113-113z m224 308l-82 0-21 46c0 0-15 36-33 36l-176 0c-18 0-33-36-33-36l-21-46-82 0c-18 0-32-15-32-33l0-324c0-18 14-33 32-33l448 0c18 0 32 15 32 33l0 324c0 18-14 33-32 33z m-326 38c4 9 11 20 15 23l174 0c4-3 11-14 15-24l17-37-238 0z m338-395c0-7-6-12-12-12l-448 0c-6 0-12 5-12 12l0 324c0 7 6 12 12 12l448 0c6 0 12-5 12-12z"/>
<glyph unicode="&#57401;" d="M451 369l-103 0 0-21 103 0z m-267 61l0 62-184 0 0-472 512 0 0 410z m-164 41l144 0 0-41-144 0z m472-430l-472 0 0 369 472 0z m-277 41c74 0 133 60 133 133 0 74-59 133-133 133-73 0-133-59-133-133 0-73 60-133 133-133z m0 246c62 0 113-51 113-113 0-62-51-113-113-113-62 0-113 51-113 113 0 62 51 113 113 113z"/>
<glyph unicode="&#57402;" d="M496 379l-107-63 0 38c0 36-29 66-65 66l-259 0c-36 0-65-30-65-66l0-196c0-36 29-66 65-66l259 0c36 0 65 30 65 66l0 38 107-63c9 0 16 7 16 16l0 214c0 9-7 16-16 16z m-127-225c0-23-19-41-41-41l-267 0c-22 0-41 18-41 41l0 204c0 23 19 41 41 41l267 0c22 0 41-18 41-41l0-204z m123 5l-103 60 0 74 103 60z"/>
<glyph unicode="&#57403;" d="M102 133c0-6 5-10 11-10l184 0c6 0 10 4 10 10 0 6-4 10-10 10l-184 0c-6 0-11-4-11-10z m394 194l-86-54 0 44c0 17-15 31-32 31l-35 0-120 120c-2 2-6 3-9 3l-163 0c-5 0-10-5-10-10 0-6 5-11 10-11l159 0 102-102-8 0 20-20 49 0c9 0 16-8 16-17l0-233c0-9-7-17-16-17l-337 0c-8 0-16 8-16 17l0 233c0 9 8 17 16 17l128 0 0 20-133 0c-17 0-31-14-31-31l0-245c0-17 14-31 31-31l347 0c17 0 32 14 32 31l0 44 86-55c9 0 16 8 16 17l0 233c0 9-7 16-16 16z m-4-239l-82 52 0 109 82 52 0-213z"/>
<glyph unicode="&#57404;" d="M444 512l-376 0c-37 0-68-31-68-68l0-376c0-37 31-68 68-68l376 0c37 0 68 31 68 68l0 376c0 37-31 68-68 68z m46-445c0-25-20-45-45-45l-378 0c-25 0-45 20-45 45l0 378c0 25 20 45 45 45l378 0c25 0 45-20 45-45z m-115 308c-5 5-12 5-16 0l-103-103-104 103c-4 5-11 5-15 0-5-4-5-11 0-15l103-104-103-103c-5-4-5-11 0-16 4-4 11-4 15 0l104 103 103-103c4-4 11-4 16 0 4 5 4 12 0 16l-103 103 103 104c4 4 4 11 0 15z"/>
<glyph unicode="&#57405;" d="M274 256l234 235c5 5 5 12 0 17-5 5-12 5-17 0l-235-234-235 234c-5 5-12 5-17 0-5-5-5-12 0-17l234-235-234-235c-5-5-5-12 0-17 5-5 12-5 17 0l235 234 235-234c5-5 12-5 17 0 5 5 5 12 0 17z"/>
<glyph unicode="&#57406;" d="M349 256l148 148c20 21 20 54 0 74l-19 19c-20 20-53 20-74 0l-148-148-148 148c-21 20-54 20-74 0l-19-19c-20-20-20-53 0-74l148-148-148-148c-20-21-20-54 0-74l19-19c20-20 53-20 74 0l148 148 148-148c21-20 54-20 74 0l19 19c20 20 20 53 0 74z m129-204l-18-18c-11-10-27-10-37 0l-167 166-167-166c-10-10-26-10-37 0l-18 18c-10 11-10 27 0 37l166 167-166 167c-10 10-10 26 0 37l18 18c11 10 27 10 37 0l167-166 167 166c10 10 26 10 37 0l18-18c10-11 10-27 0-37l-166-167 166-167c10-10 10-26 0-37z"/>
<glyph unicode="&#57407;" d="M256 512c-141 0-256-115-256-256 0-141 115-256 256-256 141 0 256 115 256 256 0 141-115 256-256 256z m0-490c-129 0-234 105-234 234 0 129 105 234 234 234 129 0 234-105 234-234 0-129-105-234-234-234z m87 321c-5 4-12 4-16 0l-71-71-71 71c-4 4-11 4-16 0-4-5-4-12 0-16l71-71-71-71c-4-4-4-11 0-16 5-4 12-4 16 0l71 71 71-71c4-4 11-4 16 0 4 5 4 12 0 16l-71 71 71 71c4 4 4 11 0 16z"/>
<glyph unicode="&#57408;" d="M327 512l-270 0c-9 0-16-7-16-16l0-480c0-9 7-16 16-16l398 0c9 0 16 7 16 16l0 352z m1-30l113-113-113 0z m123-462l-390 0 0 472 246 0 0-123 0 0 0-21 143 0 0 12 1 0 0-340z m-117 287l-78-78-78 78-14-14 78-78-78-78 14-14 78 78 78-78 14 14-78 78 78 78z"/>
<glyph unicode="&#57409;" d="M481 310l-23 107c-17 48-45 95-101 95l-202 0c-56 0-84-47-101-95l-23-107c-19-15-31-38-31-64 0-21 8-40 20-54l0-66c0-27 18-51 41-60l0-35c0-17 13-31 28-31l27 0c15 0 27 14 27 31l0 30 226 0 0-30c0-17 12-31 27-31l27 0c15 0 28 14 28 31l0 35c24 9 41 33 41 60l0 66c12 14 20 33 20 54 0 26-12 49-31 64z m-407 101c19 55 45 81 81 81l202 0c36 0 62-26 81-81l19-88c-8 3-17 5-27 5-30 0-56-17-70-41l-207 0c-15 24-41 41-71 41-10 0-18-2-27-5z m-54-165c0 34 28 61 62 61 34 0 61-27 61-61 0-34-27-62-61-62-34 0-62 28-62 62z m103-210c0-9-9-15-21-15-11 0-20 6-20 15l0 26c1 0 2-1 3-1l38 0z m307 0c0-9-9-15-20-15-12 0-21 6-21 15l0 25 38 0c1 0 2 1 3 1l0-26z m41 83c0-21-35-37-53-37l-345 0c-18 0-32 16-32 37l0 4 430 0z m0 24l-430 0 0 32c12-7 26-11 41-11 45 0 82 36 82 82 0 7-1 14-3 20l190 0c-2-6-3-13-3-20 0-46 37-82 82-82 15 0 29 4 41 11z m-41 41c-34 0-61 28-61 62 0 34 27 61 61 61 34 0 62-27 62-61 0-34-28-62-62-62z"/>
<glyph unicode="&#57410;" d="M480 369l-46 0c9 0 17-8 17-17l0-4 24 0c9 0 17-8 17-18l0-251c0-10-8-18-17-18l-335 0c-10 0-17 8-17 18l0 23-21 0 0-28c0-18 14-33 32-33l346 0c18 0 32 15 32 33l0 262c0 18-14 33-32 33z m-70-193l0 262c0 18-15 33-32 33l-347 0c-17 0-31-15-31-33l0-262c0-18 14-33 31-33l347 0c17 0 32 15 32 33z m-373-12c-9 0-16 8-16 18l0 251c0 10 7 18 16 18l335 0c10 0 17-8 17-18l0-251c0-10-7-18-17-18z m157 186c0 10 10 17 23 17 19 0 34-12 34-12l11 21c0 0-12 13-37 15l0 18-18 0 0-19c-24-3-41-19-41-40 0-44 73-41 73-66 0-11-11-17-22-17-22 0-38 15-38 15l-15-19c0 0 15-16 43-19l0-19 18 0 0 19c26 3 41 20 41 41 0 45-72 41-72 65z"/>
<glyph unicode="&#57411;" d="M256 512c-141 0-256-115-256-256 0-141 115-256 256-256 141 0 256 115 256 256 0 141-115 256-256 256z m0-491c-130 0-236 105-236 235 0 130 106 236 236 236 130 0 236-106 236-236 0-130-106-235-236-235z m0 248l0 89c21-2 40-11 53-29l13 15c-15 19-37 31-66 33l0 32-16 0 0-32c-38-2-69-26-69-62 0-42 35-54 69-64l0-99c-28 2-50 18-64 34l-12-15c16-21 42-36 76-37l0-32 16 0 0 32c54 3 71 37 71 66 1 46-36 59-71 69z m-16 5c-26 8-49 17-49 42 0 24 21 41 49 43z m16-122l0 95c28-9 51-20 51-48 0-19-12-44-51-47z"/>
<glyph unicode="&#57412;" d="M266 164c-42 0-78 25-94 61l84 0c6 0 10 5 10 10 0 6-4 11-10 11l-90 0c-1 6-2 13-2 20 0 7 1 14 2 21l90 0c6 0 10 4 10 10 0 6-4 10-10 10l-84 0c16 36 52 62 94 62 23 0 45-8 62-21l0 0 29 0c-22 25-55 41-91 41-53 0-98-34-115-82l-38 0c-6 0-11-4-11-10 0-6 5-10 11-10l32 0c-1-7-2-14-2-21 0-7 1-14 2-20l-32 0c-6 0-11-5-11-11 0-5 5-10 11-10l38 0c17-47 62-82 115-82 46 0 85 25 106 62l-24 0c-19-25-48-41-82-41z m-10 348c-141 0-256-115-256-256 0-141 115-256 256-256 141 0 256 115 256 256 0 141-115 256-256 256z m0-491c-130 0-236 105-236 235 0 130 106 236 236 236 130 0 236-106 236-236 0-130-106-235-236-235z"/>
<glyph unicode="&#57413;" d="M256 512c-141 0-256-115-256-256 0-141 115-256 256-256 141 0 256 115 256 256 0 141-115 256-256 256z m0-491c-130 0-236 105-236 235 0 130 106 236 236 236 130 0 236-106 236-236 0-130-106-235-236-235z m37 147c-18 0-27 13-48 13-6 0-13-1-17-3 13 10 24 23 24 43 0 5-1 10-2 14l40 0 0 18-49 0c-11 15-26 27-26 51 0 26 21 41 46 41 20 0 36-12 42-26l22 13c-12 23-36 36-66 36-40 0-74-28-74-64 0-24 14-38 26-51l-35 0 0-18 47 0c3-6 5-12 5-19 0-20-15-38-43-50l9-20c14 7 28 13 39 13 25 0 29-15 59-15 20 0 35 6 44 15l-12 22c-4-6-16-13-31-13z"/>
<glyph unicode="&#57414;" d="M256 512c-141 0-256-115-256-256 0-141 115-256 256-256 141 0 256 115 256 256 0 141-115 256-256 256z m0-491c-130 0-236 105-236 235 0 130 106 236 236 236 130 0 236-106 236-236 0-130-106-235-236-235z m67 347l-51-85c-9-14-16-31-16-31l-1 0c0 0-7 17-15 31l-52 85-28 0 64-112-48 0 0-16 64 0 0-32-64 0 0-16 64 0 0-64 32 0 0 64 64 0 0 16-64 0 0 32 64 0 0 16-48 0 64 112-29 0z"/>
<glyph unicode="&#57415;" d="M509 434c-5 4-11 4-16 0l-333-333-141 141c-5 5-12 5-16 0-4-4-4-11 0-15l149-149c2-2 5-3 8-3 3 0 6 1 8 3l341 341c4 4 4 11 0 15z"/>
<glyph unicode="&#57416;" d="M444 512l-376 0c-37 0-68-31-68-68l0-376c0-37 31-68 68-68l376 0c37 0 68 31 68 68l0 376c0 37-31 68-68 68z m46-445c0-25-20-45-45-45l-378 0c-25 0-45 20-45 45l0 378c0 25 20 45 45 45l378 0c25 0 45-20 45-45z m-109 308l-170-192-81 81c-4 4-11 4-16 0-4-4-4-11 0-16l89-88c3-3 5-4 8-4 3 0 6 1 8 4l178 200c4 4 4 11 0 15-4 5-11 5-16 0z"/>
<glyph unicode="&#57417;" d="M512 373c0 3-1 6-3 8l-85 85c-2 2-5 3-8 3-3 0-6-1-8-3l-227-226-76 77c-3 2-6 3-9 3-3 0-7-1-9-3l-84-84c-2-2-3-6-3-9 0-3 1-6 3-8l170-170c2-2 5-3 8-3 3 0 6 1 8 3l320 319c2 2 3 5 3 8z m-331-304l-154 155 70 69 76-76c2-2 5-3 8-3 3 0 6 0 8 3l227 226 70-70z"/>
<glyph unicode="&#57418;" d="M381 331l-170-170-82 81c-4 4-11 4-15 0-4-4-4-11 0-15l89-89c0 0 0-1 0-1 1 0 1 0 1 0l0 0c5-4 11-4 15 0 1 0 1 0 1 0l177 178c4 4 4 11 0 16-4 4-12 4-16 0z m-125 181c-141 0-256-115-256-256 0-141 115-256 256-256 141 0 256 115 256 256 0 141-115 256-256 256z m0-490c-129 0-234 105-234 234 0 129 105 234 234 234 129 0 234-105 234-234 0-129-105-234-234-234z"/>
<glyph unicode="&#57419;" d="M234 148l-56 57-14-14 68-68 4 4 4-4 129 149-15 15z m93 364l-270 0c-9 0-16-7-16-16l0-480c0-9 7-16 16-16l398 0c9 0 16 7 16 16l0 352z m1-30l113-113-113 0z m123-462l-390 0 0 472 246 0 0-123 0 0 0-21 143 0 0 12 1 0 0-340z"/>
<glyph unicode="&#57420;" d="M256 512c-141 0-256-115-256-256 0-141 115-256 256-256 141 0 256 115 256 256 0 141-115 256-256 256z m0-492c-130 0-236 106-236 236 0 130 106 236 236 236 130 0 236-106 236-236 0-130-106-236-236-236z m123 246l-133 0 0 154c0 5-5 10-10 10-6 0-11-5-11-10l0-164c0-6 5-10 11-10l143 0c6 0 10 4 10 10 0 6-4 10-10 10z"/>
<glyph unicode="&#57421;" d="M327 437l0 75-142 0 0-75c-72-29-124-99-124-181 0-82 52-152 124-181l0-75 142 0 0 75c73 29 124 99 124 181 0 82-52 152-124 181z m-122 54l102 0 0-48c-16 5-33 7-51 7-18 0-35-2-51-7z m102-470l-102 0 0 48c16-5 33-7 51-7 18 0 35 2 51 7z m-51 61c-96 0-174 78-174 174 0 96 78 174 174 174 96 0 174-78 174-174 0-96-78-174-174-174z m82 184l-72 0 0 113c0 6-4 10-10 10-6 0-10-5-10-10l0-123c0-6 4-10 10-10l82 0c6 0 10 4 10 10 0 6-4 10-10 10z"/>
<glyph unicode="&#57422;" d="M98 473c8 0 16-2 22-4l15 14c-11 6-23 9-37 9-43 0-79-35-79-79 0-13 4-25 9-36l15 15c-2 7-4 14-4 22 0 32 27 59 59 59z m168-20c-115 0-207-93-207-207 0-84 49-156 121-188l-39-39c-5-5-5-12 0-16 4-4 11-4 15 0l46 46c20-7 41-10 64-10 22 0 44 3 64 10l46-46c4-4 11-4 15 0 4 4 4 11 0 16l-39 39c71 32 121 104 121 188 0 114-93 207-207 207z m0-394c-103 0-187 84-187 187 0 103 84 187 187 187 103 0 187-84 187-187 0-103-84-187-187-187z m167 433c-18 0-35-6-48-17l14-13c9 7 21 11 34 11 33 0 60-27 60-59 0-13-5-25-12-35l15-14c10 14 16 30 16 48 0 44-35 79-79 79z m-69-236l-88 0 0 128c0 5-5 10-10 10-6 0-10-5-10-10l0-138c0-5 4-10 10-10l98 0c6 0 10 5 10 10 0 5-4 10-10 10z"/>
<glyph unicode="&#57423;" d="M398 382l-16 16-16-16 16-16z m-283-252l15-15 16 15-16 16z m-48 115l22 0 0 22-22 0z m189 267c-141 0-256-115-256-256 0-141 115-256 256-256 141 0 256 115 256 256 0 141-115 256-256 256z m0-490c-129 0-234 105-234 234 0 129 105 234 234 234 129 0 234-105 234-234 0-129-105-234-234-234z m110 108l16-16 16 16-16 16z m-99 315l-22 0 0-201 22 0 0 1 134 0 0 22-134 0z m-22-378l22 0 0 22-22 0z m-130 315l15-16 16 16-16 15z"/>
<glyph unicode="&#57424;" d="M376 367c-23 49-72 84-130 84-67 0-122-46-139-108-61-16-107-72-107-138 0-79 64-144 143-144l226 0 0 1c80 6 143 72 143 153 0 79-60 143-136 152z m-7-284l0-1-226 0c-68 0-123 55-123 123 0 61 46 112 105 121 9 59 59 104 121 104 53 0 98-34 115-82 72-2 131-60 131-133 0-70-55-127-123-132z"/>
<glyph unicode="&#57425;" d="M407 376c-13 71-76 126-151 126-75 0-138-54-151-126-60-13-105-66-105-130 0-70 54-127 123-132l0 20c-57 6-103 53-103 112 0 59 46 106 104 111 4 70 62 125 132 125 70 0 128-55 132-125 58-5 104-53 104-112 0-51-35-94-82-107l0-21c58 14 102 66 102 129 0 64-45 117-105 130z m-76-245l-65-81 0 257c0 6-4 10-10 10-6 0-10-4-10-10l0-257-65 81c-4 4-10 4-14 0-4-4-4-10 0-14l79-99c0-2 1-3 2-5 2-2 5-3 7-3 1 0 1 0 1 0 0 0 0 0 1 0 1 0 2 1 4 2 0 0 0 0 0 0 1 1 2 0 3 1 1 2 2 3 2 5l79 99c4 4 4 10 0 14-4 4-10 4-14 0z"/>
<glyph unicode="&#57426;" d="M266 310c-1 1-1 3-2 4-1 1-2 1-2 1-1 1-1 1-2 1-1 0-2 1-4 1 0 0 0 0 0 0 0 0 0 0-1 0-2 0-5 0-7-3-2-1-2-3-2-5l-80-98c-4-4-4-10 0-14 4-4 10-4 14 0l66 81 0-258c0-5 4-10 10-10 6 0 10 5 10 10l0 258 65-81c4-4 10-4 14 0 4 4 4 10 0 14z m141 66c-13 71-76 126-151 126-75 0-138-54-151-126-60-13-105-66-105-130 0-70 54-127 123-132l0 20c-57 6-103 53-103 112 0 59 46 106 104 111 4 70 62 125 132 125 70 0 128-55 132-125 58-5 104-53 104-112 0-51-35-94-82-107l0-21c58 14 102 66 102 129 0 64-45 117-105 130z"/>
<glyph unicode="&#57427;" d="M309 32l-170 0c-6 0-11-5-11-11 0-6 5-10 11-10l170 0c6 0 11 4 11 10 0 6-5 11-11 11z m96 469c-43 0-81-26-97-64l-207 0-42 64-17-12 35-52-77 0 0-42 213-256 0-107 22 0 0 107 121 162c15-8 31-13 49-13 59 0 107 48 107 107 0 59-48 106-107 106z m-181-341l-203 235 0 21 70 0 128-192 16 13-119 179 289 0 0-21z m181 149c-13 0-25 4-36 9l58 77 0 42-95 0c15 26 42 43 73 43 47 0 86-38 86-85 0-47-39-86-86-86z"/>
<glyph unicode="&#57428;" d="M369 466l-245-410c-3-4-1-11 4-14 5-2 12-1 15 4l245 410c3 4 1 11-4 14-5 2-12 1-15-4z m140-203c0 1-1 1-1 1l-82 82c-4 4-10 4-14 0-4-4-4-10 0-14l76-76-76-76c-4-4-4-10 0-14 4-4 10-4 14 0l82 82c0 0 1 0 1 1 2 2 3 4 3 7 0 3-1 5-3 7z m-409 83c-4 4-10 4-14 0l-82-82c0 0-1 0-1 0-2-2-3-5-3-8 0-2 1-5 3-7 0 0 1 0 1 0l82-82c4-4 10-4 14 0 4 4 4 10 0 14l-76 75 76 76c4 4 4 10 0 14z"/>
<glyph unicode="&#57429;" d="M225 502l-20 0 0-144 20 0z m82-41l-20 0 0-103 20 0z m-184 0l-21 0 0-103 21 0z m235-430l-307 0c-5 0-10-5-10-11 0-5 5-10 10-10l307 0c6 0 11 5 11 10 0 6-5 11-11 11z m113 266l-41 0c-8 0-16-3-22-7 0 2-1 5-1 7l3 0 0 20-8 0c0 0 0 0 0 0l-21 0c0 0 0 0 0 0l-352 0c0 0 0 0 0 0l-22 0c0 0 0 0 0 0l-7 0 0-20 3 0c-2-10-3-20-3-31 0-3 0-7 0-10l0 0 0-20 1 0c8-93 56-164 204-164 113 0 167 41 190 102l76 0c23 0 41 18 41 41l0 41c0 23-18 41-41 41z m-266-205c-93 0-170 40-183 144l366 0c-12-117-89-144-183-144z m184 164l-368 0c0 3-1 7-1 10 0 11 2 21 4 31l362 0c2-10 3-20 3-31 0-3 0-7 0-10z m103-61l-21 0c0 0 0 0 0 0l-41 0 0 0-20 0 0 61c0 11 9 21 20 21l41 0c11 0 21-10 21-21l0-61z"/>
<glyph unicode="&#57430;" d="M467 412c0 55-94 100-211 100-117 0-211-45-211-100 0-4 0-8 1-11l-1 0 0-312c0-58 96-89 211-89 115 0 211 31 211 89l-22 0c0-38-93-67-189-67-96 0-189 29-189 67l0 0 0 0 0 62c34-37 106-62 189-62 83 0 155 25 189 62l0-62 22 0 0 312-1 0c1 3 1 7 1 11z m-22-212c0-41-92-88-189-88-97 0-189 47-189 88l0 62c34-36 106-62 189-62 83 0 155 26 189 62z m0 112c0-41-92-89-189-89-97 0-189 48-189 89l0 55c34-33 106-55 189-55 83 0 155 22 189 55z m-189 22c-105 0-189 35-189 78 0 43 84 78 189 78 105 0 189-35 189-78 0-43-84-78-189-78z"/>
<glyph unicode="&#57431;" d="M420 512l-246 0c-51 0-92-41-92-92l0-123c0-51 41-92 92-92l99 0 137-103 0 103 10 0c51 0 92 41 92 92l0 123c0 51-41 92-92 92z m72-220c0-37-30-67-65-67l-38 0 0 0 0-82-98 82-124 0c-36 0-65 30-65 67l0 133c0 37 29 67 65 67l260 0c35 0 64-30 64-67l0-133z m-369-251l0 82 0 0-38 0c-35 0-64 30-64 66l0 134c0 19 7 36 20 48l0 23c-25-17-41-45-41-77l0-122c0-51 41-93 92-93l10 0 0-102 137 102 48 0 0 21-66 0z"/>
<glyph unicode="&#57432;" d="M402 302c0 91-77 164-173 164-96 0-174-73-174-164 0-48 21-90 55-120l0-100 79 60c12-3 26-5 40-5 96 0 173 74 173 165z m-219-139l-55-44 0 72c-33 27-55 66-55 111 0 80 70 146 156 146 86 0 155-66 155-146 0-81-69-147-155-147-16 0-32 3-46 8z m247 234c7-12 13-25 18-39 28-29 46-68 46-111 0-55-29-104-73-134l0-67-54 43c-15-4-31-7-47-7-29 0-56 7-80 19-4 0-8 0-12 0-8 0-16 0-24 1 32-24 72-38 116-38 14 0 27 2 40 4l79-59 0 95c44 33 73 85 73 143 0 62-33 117-82 150z"/>
<glyph unicode="&#57433;" d="M379 369l-246 0c-6 0-10-5-10-11 0-5 4-10 10-10l246 0c6 0 10 5 10 10 0 6-4 11-10 11z m37 143l-320 0c-53 0-96-44-96-97l0-211c0-54 43-81 96-81l198 0 136-123 0 124c46 4 82 31 82 80l0 211c0 53-43 97-96 97z m76-308c0-56-58-61-76-61l-6 0 0-97-109 97-205 0c-18 0-76 5-76 61l0 211c0 42 34 77 76 77l320 0c42 0 76-35 76-77z m-134 83l-204 0c-6 0-11-5-11-11 0-5 5-10 11-10l204 0c6 0 11 5 11 10 0 6-5 11-11 11z"/>
<glyph unicode="&#57434;" d="M416 512l-320 0c-53 0-96-44-96-97l0-211c0-54 43-81 96-81l198 0 136-123 0 124c46 4 82 31 82 80l0 211c0 53-43 97-96 97z m76-308c0-56-58-61-76-61l-6 0 0-97-109 97-205 0c-18 0-76 5-76 61l0 211c0 42 34 77 76 77l320 0c42 0 76-35 76-77z"/>
<glyph unicode="&#57435;" d="M256 512c-141 0-256-101-256-225 0-65 32-124 82-165l0-122 135 64c13-1 26-3 39-3 141 0 256 101 256 226 0 124-115 225-256 225z m0-430c-14 0-28 1-42 3l-112-53 0 100c-50 37-82 93-82 155 0 113 106 204 236 204 130 0 236-91 236-204 0-113-106-205-236-205z m123 266l-246 0c-6 0-10-4-10-10 0-6 4-10 10-10l246 0c6 0 10 4 10 10 0 6-4 10-10 10z m-21-82l-204 0c-6 0-11-4-11-10 0-6 5-10 11-10l204 0c6 0 11 4 11 10 0 6-5 10-11 10z"/>
<glyph unicode="&#57436;" d="M256 512c-141 0-256-101-256-225 0-65 32-124 82-165l0-122 135 64c13-1 26-3 39-3 141 0 256 101 256 226 0 124-115 225-256 225z m0-430c-14 0-28 1-42 3l-112-53 0 100c-50 37-82 93-82 155 0 113 106 204 236 204 130 0 236-91 236-204 0-113-106-205-236-205z"/>
<glyph unicode="&#57437;" d="M492 11l-73 124c1 0 1 0 1 0l-12 20c0-1 0-1 0-1l-86 147c22 14 36 38 36 66 0 39-28 71-66 77l0 68-22 0 0-68c-38-5-67-38-67-77 0-28 15-52 37-66l-76-129c-54 32-97 80-120 140l-24 0c24-68 71-124 132-160l-83-141 20-11 83 142c40-20 84-31 131-31 33 0 65 6 95 16l74-127z m-267 356c0 31 25 56 55 56 31 0 56-25 56-56 0-31-25-56-56-56-30 0-55 25-55 56z m78-233c-43 0-83 10-120 27l77 131c7-2 14-3 21-3 7 0 13 1 20 3l85-145c-26-9-54-13-83-13z"/>
<glyph unicode="&#57438;" d="M123 123l177 89 89 177-177-89z m218 218l-52-104-52 52z m-67-119l-103-52 51 104z m-18 290c-141 0-256-115-256-256 0-141 115-256 256-256 141 0 256 115 256 256 0 141-115 256-256 256z m0-491c-130 0-236 105-236 235 0 130 106 236 236 236 130 0 236-106 236-236 0-130-106-235-236-235z"/>
<glyph unicode="&#57439;" d="M491 21l-41 0-194 491-194-491-41 0c-6 0-10-4-10-10 0-6 4-11 10-11l470 0c6 0 10 5 10 11 0 6-4 10-10 10z m-235 433l45-113-90 0z m-53-134l106 0 17-43-140 0z m-22-55l0-9 150 0 0 9 71-180-292 0z m-96-244l17 43 308 0 17-43z m54 128l0-21 234 0 0 21z"/>
<glyph unicode="&#57440;" d="M502 82l-51 0 0 355 37 37c4 4 4 11 0 15-4 4-10 4-14 0l-45-45c-2 4-5 7-9 7l-338 0 0 51c0 5-5 10-10 10-6 0-11-5-11-10l0-51-51 0c-5 0-10-5-10-11 0-5 5-10 10-10l51 0 0-357c0-3 1-6 3-8 0 0 0 0 0 0 2-2 5-4 8-4l358 0 0-51c0-5 5-10 10-10 6 0 11 5 11 10l0 51 51 0c5 0 10 5 10 11 0 5-5 10-10 10z m-87 348l-333-333 0 333z m-319-348l334 334 0-334z"/>
<glyph unicode="&#57441;" d="M384 258l-77 106c16 15 27 35 27 59 0 43-35 78-78 78-43 0-78-35-78-78 0-24 11-44 27-59l-77-106-128 106 0-353 512 0 0 353z m-184 165c0 31 25 56 56 56 31 0 56-25 56-56 0-31-25-56-56-56-31 0-56 25-56 56z m290-390l-468 0 0 67 468 0z m0 89l-468 0 0 194 92-75 18-15 14 19 78 107c10-4 21-7 32-7 11 0 22 3 32 7l78-107 14-19 18 15 92 75z"/>
<glyph unicode="&#57442;" d="M256 512l-256-93 256-116 233 105 0-255-210-114 0 274-23-10 0-280-233 130 0 255-23 11 0-279 256-140 256 140 0 279z m0-186l-197 91 197 72 197-72z"/>
<glyph unicode="&#57443;" d="M320 328c-6 1-13-2-15-8l-40-137c-3 1-6 1-9 1-28 0-51-23-51-51 0-28 23-51 51-51 28 0 51 23 51 51 0 17-8 31-20 41l41 141c2 5-2 11-8 13z m-64-226c-17 0-31 14-31 31 0 17 14 31 31 31 17 0 31-14 31-31 0-17-14-31-31-31z m0 410c-141 0-256-115-256-256 0-141 115-256 256-256 141 0 256 115 256 256 0 141-115 256-256 256z m0-492c-130 0-236 106-236 236 0 130 106 236 236 236 130 0 236-106 236-236 0-130-106-236-236-236z m0 410c-93 0-168-72-174-164l21 0c6 80 72 144 153 144 81 0 147-64 153-144l21 0c-6 92-81 164-174 164z"/>
<glyph unicode="&#57444;" d="M276 184l-40 0 0-41 40 0z m103 103l-41 0 0-41 41 0z m-103 0l-40 0 0-41 40 0z m190 225l-420 0c-8 0-15-7-15-16l0-480c0-9 7-16 15-16l420 0c8 0 15 7 15 16l0 480c0 9-7 16-15 16z m-5-492l-410 0 0 369 410 0z m0 390l-410 0 0 82 410 0z m-287-226l-41 0 0-41 41 0z m0 103l-41 0 0-41 41 0z m205-103l-41 0 0-41 41 0z"/>
<glyph unicode="&#57445;" d="M430 164l-102 0 0-103 102 0z m-21-82l-60 0 0 61 60 0z m-225 225l-102 0 0-102 102 0 0 102z m-21-82l-60 0 0 62 60 0z m288 246l-82 0 0 41-21 0 0-41-184 0 0 41-21 0 0-41-82 0c-22 0-41-18-41-41l0-389c0-23 19-41 41-41l390 0c22 0 40 18 40 41l0 389c0 23-18 41-40 41z m20-430c0-11-9-21-20-21l-390 0c-11 0-20 10-20 21l0 307 430 0z m0 328l-430 0 0 61c0 11 9 21 20 21l82 0 0-21 21 0 0 21 184 0 0-21 21 0 0 21 82 0c11 0 20-10 20-21z m-41-62l-102 0 0-102 102 0z m-21-82l-60 0 0 62 60 0z m-102-61l-102 0 0-103 102 0z m-21-82l-60 0 0 61 60 0 0-61z m21 225l-102 0 0-102 102 0z m-21-82l-60 0 0 62 60 0 0-62z m-102-61l-102 0 0-103 102 0 0 103z m-21-82l-60 0 0 61 60 0z"/>
<glyph unicode="&#57446;" d="M174 287l144 0-112-189c-3-5-1-12 4-15 6-3 12-1 15 4l122 204c0 1 0 2 0 3 0 1 1 2 1 3 0 0 0 1 0 1-1 1-1 2-2 3 0 2-1 3-2 4-1 0-1 1-1 1-1 1-2 0-3 0-1 1-1 1-2 1l-164 0c-6 0-10-4-10-10 0-6 4-10 10-10z m306 225l-448 0c-18 0-32-14-32-32l0-448c0-18 14-32 32-32l448 0c18 0 32 14 32 32l0 448c0 18-14 32-32 32z m12-471c0-11-10-21-21-21l-430 0c-11 0-21 10-21 21l0 348 472 0z m0 369l-472 0 0 61c0 11 10 20 21 20l430 0c11 0 21-9 21-20l0-61z"/>
<glyph unicode="&#57447;" d="M509 350l-69 137c-5 8-15 15-24 15l-161 0c-1 0-1 0-1 0 0 0 0 0 0 0l-158 0c-9 0-19-7-24-15l-69-134c-5-8-4-20 1-28l241-309c2-4 6-6 9-6 3 0 7 2 9 5l244 308c6 7 7 19 2 27z m-27 8l-91 0 41 100z m-63 122l-50-122-14 0-79 123 140 0c1 0 2 0 3-1z m-255-142l0 0 184 0 0 0 12 0-104-255-104 255z m13 20l79 123 79-123z m56 123l-77-123-13 0-50 122c1 1 2 1 3 1z m-153-23l41-100-92 0z m-59-117l0-1c0 1 0 1 0 1z m0-3l108 0 116-282-2-5-222 286c0 0 0 1 0 1z m470-3l-223-281-1 2 116 282 108 0 0 2c1-1 0-4 0-5z"/>
<glyph unicode="&#57448;" d="M451 246l-123 0 0 41 82 0 0 164-82 0 0 29c0 18-15 32-33 32l-78 0c-18 0-33-14-33-32l0-29-123 0-61-82 61-82 123 0 0-41-82 0 0-164 82 0 0-50c0-18 15-32 33-32l78 0c18 0 33 14 33 32l0 50 123 0 61 82z m-246 225c0 11 9 20 20 20l62 0c11 0 20-9 20-20l0-20-102 0z m-133-164l-46 62 46 61 317 0 0-123z m235-20l0-41-102 0 0 41z m0-246c0-11-9-21-20-21l-62 0c-11 0-20 10-20 21l0 41 102 0z m133 61l-317 0 0 123 317 0 46-61z"/>
<glyph unicode="&#57449;" d="M0 512l0-512 512 0 0 512z m102-21l308 0 0-184-308 0z m390-471l-472 0 0 471 62 0 0-204 348 0 0 204 62 0z m-267 328l123 0 0 103-123 0z m21 82l82 0 0-61-82 0z"/>
<glyph unicode="&#57450;" d="M143 358c0-5 5-10 11-10l204 0c6 0 11 5 11 10 0 6-5 11-11 11l-204 0c-6 0-11-5-11-11z m-61 133l348 0 61-266 21 0-64 287-384 0-64-287 20 0z m20-194c0-6 5-10 11-10l286 0c6 0 11 4 11 10 0 6-5 10-11 10l-286 0c-6 0-11-4-11-10z m287-72l-20 0 0-82-226 0 0 82-20 0 0 0-123 0 0-20 0 0 0 0 0-173c0-18 14-32 32-32l448 0c18 0 32 14 32 32l0 173 0 0 0 0 0 20z m86-20c1 0 1 0 1 0l15 0 0-168c0-9-7-17-16-17l-438 0c-9 0-16 8-16 17l0 168 15 0c0 0 0 0 1 0l86 0 0-82 266 0 0 82z m-137 205c6 0 10 4 10 10 0 5-4 10-10 10l-164 0c-6 0-10-5-10-10 0-6 4-10 10-10z"/>
<glyph unicode="&#57451;" d="M82 491l348 0 62-266 20 0-64 287-384 0-64-287 20 0z m398-266l-111 0 0-82-226 0 0 82-20 0 0 0-123 0 0-20 0 0 0 0 0-173c0-18 14-32 32-32l448 0c18 0 32 14 32 32l0 173c0 0 0 0 0 0l0 0 0 20-32 0c0 0 0 0 0 0z m12-188c0-9-8-17-17-17l-438 0c-9 0-16 8-16 17l0 168 15 0c0 0 0 0 1 0l86 0 0-82 266 0 0 82 86 0c0 0 1 0 1 0l16 0z"/>
<glyph unicode="&#57452;" d="M248 228c2-2 5-3 8-3l0 0c0 0 0 0 0 0 0 0 0 0 0 0 3 0 6 1 7 3l102 102c4 4 4 11 0 15-4 4-10 4-14 0l-85-85 0 242c0 5-4 10-10 10-6 0-10-5-10-10l0-243-85 86c-4 4-11 4-15 0-4-4-4-11 0-15z m260-3l-1 0-59 226-59 0 0-21 44 0 52-205-116 0 0-82-226 0 0 82-116 0 52 205 44 0 0 21-59 0-64-246 0 0 0-173c0-18 14-32 32-32l448 0c18 0 32 14 32 32l0 173z m-16-188c0-9-8-17-17-17l-438 0c-9 0-16 8-16 17l0 168 102 0 0-82 266 0 0 82 103 0 0-168z"/>
<glyph unicode="&#57453;" d="M161 393l85 85 0-243c0-5 4-10 10-10 6 0 10 5 10 10l0 242 85-84c4-4 11-4 15 0 4 4 4 10 0 14l-102 102c-2 2-5 3-8 3 0 0 0 0 0 0 0 0 0 0 0 0-3 0-6-1-8-3l-102-102c-4-4-4-10 0-14 4-4 11-4 15 0z m347-168l-1 0-59 225-59 0 0-20 43 0 53-205-116 0 0-82-226 0 0 82-116 0 53 205 43 0 0 20-59 0-64-245 0 0 0-173c0-18 14-32 32-32l448 0c18 0 32 14 32 32l0 173z m-17-188c0-9-7-17-16-17l-438 0c-9 0-16 8-16 17l0 168 102 0 0-82 266 0 0 82 102 0z"/>
<glyph unicode="&#57454;" d="M0 348l41-348 430 0 41 348z m451-328l-390 0-40 308 471 0z m-328 205l266 0 0 21-266 0z m-102 266l102 0 0-40-41 0 0-62 20 0 0 41 349 0 0-41 20 0 0 62-328 0 0 61-143 0 0-123 21 0z"/>
<glyph unicode="&#57455;" d="M501 200c-6 0-11-5-11-11l0-122-468 0 0 122c0 6-5 11-11 11-6 0-11-5-11-11l0-133c0-6 5-11 11-11l490 0c6 0 11 5 11 11l0 133c0 6-5 11-11 11z m-253-63c0 0 0 0 0 0 0 0 0 0 0-1 2-1 4-2 7-2 0 0 0-1 1-1 0 0 0 1 0 1 3 0 5 1 7 2 0 1 0 1 1 1 0 0 0 0 0 0l111 110c4 5 4 12 0 16-5 5-12 5-16 0l-92-91 0 284c0 6-5 11-11 11-7 0-12-4-12-11l0-284-91 91c-5 5-12 5-16 0-5-4-5-11 0-16z"/>
<glyph unicode="&#57456;" d="M440 389l-71 0 0-20 61 0c11 0 21-10 21-21l0-307c0-11-10-21-21-21l-348 0c-11 0-21 10-21 21l0 307c0 11 10 21 21 21l61 0 0 20-71 0c-17 0-31-14-31-32l0-325c0-17 14-32 31-32l368 0c17 0 31 15 31 32l0 325c0 18-14 32-31 32z m-193-263c2-3 6-3 9-3 3 0 6 0 8 3l81 80c4 4 4 11 0 16-5 4-12 4-16 0l-63-62 0 342c0 5-4 10-10 10-6 0-10-5-10-10l0-343-63 63c-5 4-12 4-16 0-5-5-5-12 0-16z"/>
<glyph unicode="&#57457;" d="M256 512c0 0-167-194-167-307 0-113 75-205 167-205 92 0 167 92 167 205 0 113-167 307-167 307z m0-490c-80 0-145 80-145 178 0 99 145 267 145 267 0 0 145-168 145-267 0-98-65-178-145-178z m-84 195c0 2 1 3 1 5-11-16-17-35-17-55 0-55 45-100 100-100 20 0 39 6 55 17-2 0-3-1-5-1-74 0-134 60-134 134z"/>
<glyph unicode="&#57458;" d="M256 479l-256-401 512 0z m0-42l215-337-430 0z m-256-404l512 0 0 23-512 0z"/>
<glyph unicode="&#57459;" d="M207 222l-125-126 0 99c0 5-5 10-10 10-6 0-11-5-11-10l0-123c0-6 5-11 11-11 0 0 1 0 1 0l122 0c5 0 10 5 10 11 0 5-5 10-10 10l-97 0 124 125c5 4 5 11 0 15-4 4-11 4-15 0z m233-17c-5 0-10-4-10-10l0-98-125 125c-4 4-11 4-15 0-5-4-5-11 0-15l124-125-97 0c-5 0-10-4-10-10 0-5 5-10 10-10l122 0c0 0 1 0 1 0 6 0 11 5 11 10l0 123c0 6-5 10-11 10z m8 307l-384 0c-35 0-64-29-64-64l0-384c0-35 29-64 64-64l384 0c35 0 64 29 64 64l0 384c0 35-29 64-64 64z m44-451c0-22-19-41-41-41l-390 0c-22 0-41 19-41 41l0 390c0 22 19 40 41 40l390 0c22 0 41-18 41-40z m-45 387c-2 2-5 3-8 3l-122 0c-5 0-10-5-10-11 0-5 5-10 10-10l97 0-124-125c-5-4-5-11 0-15 4-4 11-4 15 0l125 125 0-98c0-5 5-10 10-10 6 0 11 5 11 10l0 123c0 3-2 5-3 7 0 0-1 0-1 1z m-349-18l97 0c5 0 10 5 10 10 0 6-5 11-10 11l-122 0c-1 0-2-1-3-1-5-1-9-5-9-10l0-122c0-6 5-11 11-11 5 0 10 5 10 11l0 97 125-125c4-4 11-4 15 0 5 4 5 11 0 15z"/>
<glyph unicode="&#57460;" d="M502 512l0 0c0 0-1 0-1 0l-204 0c-6 0-10-5-10-10 0-6 4-11 10-11l180 0-456-456 0 180c0 6-5 10-11 10-5 0-10-4-10-10l0-204c0 0 0-1 0-1l0 0c0-5 5-10 10-10l205 0c6 0 10 5 10 10 0 6-4 10-10 10l-181 0 457 458 0-181c0-6 5-10 11-10 5 0 10 4 10 10l0 205c0 5-5 10-10 10z"/>
<glyph unicode="&#57461;" d="M327 512l-270 0c-9 0-16-7-16-16l0-480c0-9 7-16 16-16l398 0c9 0 16 7 16 16l0 352z m1-30l113-113-113 0z m123-462l-390 0 0 472 246 0 0-123 0 0 0-21 143 0 0 12 1 0 0-340z m-308 205l226 0 0 21-226 0z m0-82l226 0 0 21-226 0z"/>
<glyph unicode="&#57462;" d="M89 277l0 224-22 0 0-224c-38-5-67-37-67-77 0-39 29-71 67-76l0-113 22 0 0 113c38 5 67 37 67 76 0 40-29 72-67 77z m-11-132c-31 0-56 25-56 55 0 31 25 56 56 56 31 0 56-25 56-56 0-30-25-55-56-55z m189 310l0 46-22 0 0-46c-38-5-67-37-67-77 0-39 29-71 67-76l0-291 22 0 0 291c38 5 67 37 67 76 0 40-29 72-67 77z m-11-132c-31 0-56 25-56 55 0 31 25 56 56 56 31 0 56-25 56-56 0-30-25-55-56-55z m189-135l0 313-22 0 0-313c-38-5-67-37-67-77 0-39 29-71 67-76l0-24 22 0 0 24c38 5 67 37 67 76 0 40-29 72-67 77z m-11-132c-31 0-56 25-56 55 0 31 25 56 56 56 31 0 56-25 56-56 0-30-25-55-56-55z"/>
<glyph unicode="&#57463;" d="M431 310c-25 43-20 73-20 74 1 6-1 12-6 15-3 3-6 4-9 4-3 0-5-1-7-2-1 0-33-15-46-59-3-12-5-23-6-34-5 8-9 16-12 23-34 74-18 161-18 162 1 5-1 11-5 15-2 3-6 4-10 4-2 0-3 0-4-1-5-1-101-31-124-155-8-45-3-90 4-119-10 7-19 17-27 30-13 21-23 58-23 58-2 7-7 11-13 12-1 0-2 0-2 0-6 0-11-3-14-8-2-3-38-69-38-130 0-115 85-199 203-199 120 0 207 84 207 199 0 48-7 73-30 111z m-177-290c-107 0-183 74-183 179 0 43 21 90 31 110 4-13 12-36 22-52 10-17 20-29 32-37l43-29-12 51c-4 21-11 64-3 110 18 95 81 129 102 137-3-24-10-99 21-167 3-7 7-15 13-24l30-52 7 60c1 11 3 21 6 30 6 23 19 36 28 42-1-14 2-43 23-78 21-35 26-57 26-101 1-103-78-179-186-179z"/>
<glyph unicode="&#57464;" d="M392 457c-24 0-54 6-89 22-52 24-100 32-142 32-84 0-140-32-140-32l0-469c0-5 4-10 10-10 5 0 10 5 10 10l0 199c20 6 54 14 98 14 46 0 103-9 164-37 35-16 65-22 89-22 73 0 99 55 99 55l0 293c0 0-26-55-99-55z m79-233c-7-10-30-39-79-39-24 0-51 6-80 20-56 26-114 39-173 39-42 0-76-7-98-13l0 235c19 9 63 24 120 24 46 0 91-10 134-30 35-16 67-24 97-24 35 0 61 11 79 24l0-236z"/>
<glyph unicode="&#57465;" d="M511 356c0 1 1 1 1 2 0 1-1 2-1 3 0 1-1 1-1 2-1 2-2 3-3 4-1 0-1 1-1 1-1 0-1 0-2 0-1 0-1 1-2 1l-51 0 0 91c0 17-15 32-33 32l-386 0c-18 0-32-15-32-32l0-408c0-5 1-9 3-13l-2-4c-2-6 0-12 5-14 4-1 8 1 11 4 5-3 10-5 15-5l357 0 0 11 122 323c0 1 0 1 0 2z m-491 99c0 9 8 16 17 16l377 0c9 0 16-7 16-16l0-86-297 0c-1 0-1-1-2-1-1-1-2-1-2-1-2-1-4-3-4-5-1 0-1 0-1 0l-104-275z m6-410l114 303 348 0-116-307-335 0c-4 0-8 2-11 4z"/>
<glyph unicode="&#57466;" d="M215 364c0-20-15-36-34-36l-7 0 0 184-20 0 0-184-7 0c-19 0-34 16-34 36l0 148-21 0 0-139c0-36 26-66 57-66l5 0 0-307 20 0 0 307 4 0c32 0 58 30 58 66l0 139-21 0z m183 25c-21 64-81 123-81 123l0 0-20 0 0-512 20 0 0 225 103 0 0 0c0 0 3 89-22 164z m-81-143l0 237c20-23 49-63 62-114 13-54 18-99 19-123l-81 0z"/>
<glyph unicode="&#57467;" d="M512 256l-348 225 0-106-164 106 0-450 164 106 0-106z m-492-188l0 376 164-106 0 106 290-188-290-188 0 106z"/>
<glyph unicode="&#57468;" d="M143 328l21 0 0 61-21 0z m255 184l-284 0c-18 0-32-14-32-32l0-448c0-18 14-32 32-32l284 0c18 0 32 14 32 32l0 448c0 18-14 32-32 32z m11-475c0-9-7-16-17-16l-272 0c-10 0-17 7-17 16l0 229 306 0z m0 250l-306 0 0 188c0 9 7 16 17 16l272 0c10 0 17-7 17-16z m-245-62l-21 0 0-61 21 0 0 61z"/>
<glyph unicode="&#57469;" d="M447 448c-2 2-5 3-8 3l-122 0c-5 0-10-5-10-11 0-5 5-10 10-10l97 0-124-125c-5-4-5-11 0-15 4-4 11-4 15 0l125 125 0-98c0-5 5-10 10-10 6 0 11 5 11 10l0 123c0 3-2 5-3 7 0 0-1 0-1 1z m1 64l-384 0c-35 0-64-29-64-64l0-384c0-35 29-64 64-64l384 0c35 0 64 29 64 64l0 384c0 35-29 64-64 64z m44-451c0-22-19-41-41-41l-390 0c-22 0-41 19-41 41l0 390c0 22 19 40 41 40l390 0c22 0 41-18 41-40z m-285 161l-125-126 0 99c0 5-5 10-10 10-6 0-11-5-11-10l0-123c0-6 5-11 11-11 0 0 1 0 1 0l122 0c5 0 10 5 10 11 0 5-5 10-10 10l-97 0 124 125c5 4 5 11 0 15-4 4-11 4-15 0z"/>
<glyph unicode="&#57470;" d="M215 82l-133 0 0 133c0 6-5 10-10 10-6 0-11-4-11-10l0-143c0-6 5-11 11-11l143 0c6 0 10 5 10 11 0 5-4 10-10 10z m233 430l-384 0c-35 0-64-29-64-64l0-384c0-35 29-64 64-64l384 0c35 0 64 29 64 64l0 384c0 35-29 64-64 64z m44-451c0-22-19-41-41-41l-390 0c-22 0-41 19-41 41l0 390c0 22 19 40 41 40l390 0c22 0 41-18 41-40z m-52 390l-143 0c-6 0-10-5-10-11 0-5 4-10 10-10l133 0 0-133c0-6 5-10 10-10 6 0 11 4 11 10l0 143c0 6-5 11-11 11z"/>
<glyph unicode="&#57471;" d="M432 448l-125-125 0 97c0 5-4 10-10 10-6 0-10-5-10-10l0-121c0-1 0-1 0-2 0-6 4-10 10-10l123 0c6 0 10 4 10 10 0 6-5 10-10 10l-98 0 125 126c4 4 4 11 0 15-4 4-11 4-15 0z m16 64l-384 0c-35 0-64-29-64-64l0-384c0-35 29-64 64-64l384 0c35 0 64 29 64 64l0 384c0 35-29 64-64 64z m44-451c0-22-19-41-41-41l-390 0c-22 0-41 19-41 41l0 390c0 22 19 40 41 40l390 0c22 0 41-18 41-40z m-277 164l-123 0c-6 0-10-4-10-10 0-6 4-10 10-10l98 0-125-126c-4-4-4-11 0-15 4-4 11-4 15 0l125 125 0-97c0-6 4-10 10-10 6 0 10 4 10 10l0 121c0 1 0 1 0 2 0 6-4 10-10 10z"/>
<glyph unicode="&#57472;" d="M61 61l390 0 0 390-390 0z m21 369l348 0 0-348-348 0z m-62 62l144 0 0 20-164 0 0-143 20 0z m328 20l0-20 143 0 0-123 21 0 0 143z m143-491l-102 0 0-21 123 0 0 143-21 0z m-471 122l-20 0 0-143 164 0 0 21-144 0z"/>
<glyph unicode="&#57473;" d="M318 79l13-17 89 64-14 17z m6 64l-88-64 13-17 89 64z m125 369l-386 0c-18 0-32-14-32-32l0-448c0-18 14-32 32-32l386 0c18 0 32 14 32 32l0 448c0 18-14 32-32 32z m12-471c0-11-9-21-21-21l-368 0c-12 0-21 10-21 21l0 430c0 11 9 20 21 20l368 0c12 0 21-9 21-20l0-430z m-307 123l-21 0 0-41-41 0 0-21 41 0 0-41 21 0 0 41 41 0 0 21-41 0z m233 287l-262 0c-18 0-33-15-33-34l0-199c0-19 15-34 33-34l262 0c18 0 33 15 33 34l0 199c0 19-15 34-33 34z m12-226c0-11-9-20-20-20l-246 0c-11 0-20 9-20 20l0 185c0 11 9 20 20 20l246 0c11 0 20-9 20-20l0-185z"/>
<glyph unicode="&#57474;" d="M430 338c0 96-78 174-174 174-96 0-174-78-174-174 0-93 72-168 164-174l0-62-51 0c-6 0-11-4-11-10 0-5 5-10 11-10l51 0 0-72c0-5 4-10 10-10 6 0 10 5 10 10l0 72 51 0c6 0 11 5 11 10 0 6-5 10-11 10l-51 0 0 62c92 6 164 81 164 174z m-328 0c0 85 69 154 154 154 85 0 154-69 154-154 0-85-69-154-154-154-85 0-154 69-154 154z"/>
<glyph unicode="&#57475;" d="M501 501l-128 0c-6 0-10-4-10-10 0-6 4-11 10-11l102 0-163-163c-33 35-79 56-131 56-100 0-181-81-181-181 0-100 81-181 181-181 100 0 181 81 181 181 0 41-13 79-36 109l165 165 0-103c0-6 4-11 10-11 6 0 11 5 11 11l0 128c0 6-5 10-11 10z m-320-469c-88 0-160 72-160 160 0 88 72 160 160 160 47 0 89-20 118-52 0-3 0-6 3-8 1-2 4-3 6-3 21-27 33-60 33-97 0-88-71-160-160-160z"/>
<glyph unicode="&#57476;" d="M353 410c9 10 16 25 16 41 0 34-28 61-62 61-21 0-40-11-51-28-11 17-30 28-51 28-34 0-62-27-62-61 0-16 7-31 16-41l-159 0 0-82 20 0 0-328 472 0 0 328 20 0 0 82z m-46 82c23 0 41-19 41-41 0-23-18-41-41-41-22 0-41 18-41 41 0 22 19 41 41 41z m-51-75c2-3 4-5 6-7l-12 0c2 2 4 4 6 7z m-51 75c22 0 41-19 41-41 0-23-19-41-41-41-23 0-41 18-41 41 0 22 18 41 41 41z m41-472l-205 0 0 144 205 0z m0 164l-205 0 0 144 205 0z m225-164l-205 0 0 144 205 0 0-144z m0 164l-205 0 0 144 205 0 0-144z m21 164l-472 0 0 41 185 0c0 0 0 0 0 0 0 0 0 0 0 0l102 0c0 0 0 0 0 0 0 0 0 0 0 0l185 0 0-41z"/>
<glyph unicode="&#57477;" d="M82 512l0-32c0 0 0-13 0-48 0-125 75-216 164-227l0-185-92 0c-6 0-11-4-11-10 0-5 5-10 11-10l204 0c6 0 11 5 11 10 0 6-5 10-11 10l-92 0 0 185c89 11 164 102 164 227 0 18 0 48 0 48l0 32z m328-70c0-120-67-217-154-217-86 0-153 97-153 217 0 17-1 34 2 50l303 0c3-16 2-33 2-50z"/>
<glyph unicode="&#57478;" d="M492 225l0 0 20 0-102 201 0 4-2 0 0 0-1 0-79 0 0-21 67 0 96-184-465 0c4 12 11 23 19 32l72 152 67 0 0 21-79 0-1 0 0 0-2 0 0-4-93-201-4 0c-2-6-3-12-4-18l-1-2 1 0c-1-4-1-7-1-10 0-63 50-113 113-113 43 0 81 25 99 61l88 0c18-36 56-61 99-61 63 0 113 50 113 113 0 10-2 20-5 30z m-379-122c-51 0-93 41-93 92 0 3 1 6 1 10l183 0c0-4 1-7 1-10 0-51-41-92-92-92z m108 61c2 10 4 20 4 31 0 3 0 6-1 10l64 0c-1-4-1-7-1-10 0-11 2-21 4-31z m178-61c-51 0-92 41-92 92 0 3 1 6 1 10l182 0c1-4 1-7 1-10 1-51-41-92-92-92z"/>
<glyph unicode="&#57479;" d="M416 319c0 106-86 193-192 193-106 0-192-87-192-193 0-106 86-191 192-191 106 0 192 85 192 191z m-363 0c0 94 77 171 171 171 94 0 170-77 170-171 0-94-76-170-170-170-94 0-171 76-171 170z m427 1c0 77-34 145-87 192l-34 0c60-42 100-113 100-192 0-130-105-235-235-235-22 0-44 4-64 9l0-22c20-5 42-8 64-8l0-43-53 0c-6 0-11-4-11-10 0-6 5-11 11-11l128 0c5 0 10 5 10 11 0 6-5 10-10 10l-54 0 0 44c132 11 235 121 235 255z"/>
<glyph unicode="&#57480;" d="M480 512l-448 0c-18 0-32-14-32-32l0-448c0-18 14-32 32-32l448 0c18 0 32 14 32 32l0 448c0 18-14 32-32 32z m12-471c0-11-10-21-21-21l-430 0c-11 0-21 10-21 21l0 143 152 133 94-112 21 0 205 223z m-215 175l-93 112-20 0-144-126 0 269c0 11 10 20 21 20l430 0c11 0 21-9 21-20l0-20z"/>
<glyph unicode="&#57481;" d="M0 369l143 0 0 143-143 0z m20 123l103 0 0-103-103 0z m-20-308l143 0 0 144-143 0z m20 123l103 0 0-102-103 0z m349 205l0-143 143 0 0 143z m123-123l-103 0 0 103 103 0z m-492-389l143 0 0 143-143 0z m20 123l103 0 0-103-103 0z m164 246l144 0 0 143-144 0z m21 123l102 0 0-103-102 0z m164-492l143 0 0 143-143 0z m20 123l103 0 0-103-103 0z m-20 61l143 0 0 144-143 0z m20 123l103 0 0-102-103 0z m-205-123l144 0 0 144-144 0z m21 123l102 0 0-102-102 0z m-21-307l144 0 0 143-144 0z m21 123l102 0 0-103-102 0z"/>
<glyph unicode="&#57482;" d="M186 233l-139 0c-26 0-47-21-47-47l0-139c0-26 21-47 47-47l139 0c26 0 47 21 47 47l0 139c0 26-21 47-47 47z m23-186c0-13-10-24-23-24l-139 0c-13 0-24 11-24 24l0 139c0 13 11 23 24 23l139 0c13 0 23-10 23-23l0-139z m256 186l-139 0c-26 0-47-21-47-47l0-139c0-26 21-47 47-47l139 0c26 0 47 21 47 47l0 139c0 26-21 47-47 47z m24-186c0-13-11-24-24-24l-139 0c-13 0-23 11-23 24l0 139c0 13 10 23 23 23l139 0c13 0 24-10 24-23z m-24 465l-139 0c-26 0-47-21-47-47l0-139c0-26 21-47 47-47l139 0c26 0 47 21 47 47l0 139c0 26-21 47-47 47z m24-186c0-13-11-23-24-23l-139 0c-13 0-23 10-23 23l0 139c0 13 10 24 23 24l139 0c13 0 24-11 24-24z m-303 186l-139 0c-26 0-47-21-47-47l0-139c0-26 21-47 47-47l139 0c26 0 47 21 47 47l0 139c0 26-21 47-47 47z m23-186c0-13-10-23-23-23l-139 0c-13 0-24 10-24 23l0 139c0 13 11 24 24 24l139 0c13 0 23-11 23-24l0-139z"/>
<glyph unicode="&#57483;" d="M459 512l-406 0c-18 0-33-14-33-32l0-223c0-17 15-32 33-32l152 0 0-192c0-18 14-33 31-33l61 0c17 0 30 15 30 33l0 192 132 0c18 0 33 15 33 32l0 223c0 18-15 32-33 32z m-152-328l0 0 0-143c0-11-9-21-20-21l-41 0c-12 0-21 10-21 21l0 143 0 0 0 41 82 0z m164 82c0-11-9-20-20-20l-390 0c-11 0-20 9-20 20l0 205c0 11 9 21 20 21l41 0 0-246 21 0 0 246 287 0 0-246 20 0 0 246 21 0c11 0 20-10 20-21z"/>
<glyph unicode="&#57484;" d="M512 256c0 141-115 256-256 256-141 0-256-115-256-256 0-3 1-7 1-10l-1 0 0-41 1 0c0-2-1-4-1-5l0-92c0-26 21-47 46-47l31 0c25 0 46 21 46 47l0 92c0 25-21 46-46 46l-31 0c-2 0-3-1-5-1l0 1-20 0c0 3-1 7-1 10 0 130 106 236 236 236 130 0 236-106 236-236 0-3-1-7-1-10l-20 0 0-1c-2 0-3 1-5 1l-31 0c-25 0-46-21-46-46l0-92c0-26 21-47 46-47l31 0c25 0 46 21 46 47l0 92c0 1-1 3-1 5l1 0 0 41-1 0c0 3 1 7 1 10z m-430-31c11 0 20-9 20-20l0-103c0-11-9-20-20-20l-41 0c-11 0-21 9-21 20l0 123z m410-123c0-11-10-20-21-20l-41 0c-11 0-20 9-20 20l0 103c0 11 9 20 20 20l62 0z"/>
<glyph unicode="&#57485;" d="M368 512c-48 0-112-83-112-83 0 0-64 83-112 83-97 0-144-49-144-150 0-95 256-362 256-362 0 0 256 267 256 362 0 101-47 150-144 150z m-347-150c0 90 38 130 123 130 26 0 72-44 96-75l16-21 16 21c24 31 70 75 96 75 85 0 123-40 123-130 0-60-138-229-235-332-97 103-235 272-235 332z"/>
<glyph unicode="&#57486;" d="M256 512l-246-276 79 0 0-216 118 0 0 118c0 11 9 20 19 20l60 0c10 0 19-9 19-20l0-118 118 0 0 216 79 0z m148-257l0-216-82 0c2 4 3 8 3 12l0 95c0 17-15 31-35 31l-68 0c-20 0-35-14-35-31l0-95c0-4 1-8 3-12l-82 0 0 216-54 0 202 227 202-227-54 0z"/>
<glyph unicode="&#57487;" d="M123 205l82 0 0 20-82 0z m0-62l82 0 0 21-82 0z m82 215c0-28 23-51 51-51 28 0 51 23 51 51 0 28-23 51-51 51-28 0-51-23-51-51z m51 31c17 0 31-14 31-31 0-17-14-31-31-31-17 0-30 14-30 31 0 17 13 31 30 31z m253-86l-244 204c0 0 0 1-1 2-2 2-5 3-8 3-3 0-6-1-8-3 0-1 0-1-1-2l-244-204c-4-4-4-10 0-14 4-3 10-3 14 0l24 21 0-278c0-18 15-32 32-32l366 0c17 0 32 14 32 32l0 278 24-21c4-3 10-3 14 0 4 4 4 10 0 14z m-140-283l-102 0 0 185 102 0z m82 21c0-11-10-21-21-21l-41 0 0 205-143 0 0-205-164 0c-11 0-20 10-20 21l0 286 194 162 195-162z"/>
<glyph unicode="&#57488;" d="M398 451l-284 0c-18 0-32-15-32-32l0-285c0-17 14-32 32-32l284 0c18 0 32 15 32 32l0 285c0 17-14 32-32 32z m11-312c0-9-7-16-15-16l-276 0c-8 0-16 7-16 16l0 13c1-2 1-4 3-6 4-4 10-4 14 0l74 93 54-72c1-1 2-1 4-1 0 0 0-1 0-1 1 0 1 0 1 0 2 0 3-1 4 0 4-1 9 0 11 4l72 129 70-88z m0 107l-62 79c-3 3-7 3-11 2-4 0-7-1-9-4l-72-130-52 70c0 1-1 1-1 1-1 1-3 1-4 1-1 1-2 2-3 2-2 0-5-1-7-3l0-1c0 0-1 0-1 0 0 0 0 0 0 0l-82-103c-2-1-2-3-2-5l0 259c0 9 7 16 15 16l276 0c8 0 16-7 16-16l0-168z m51 266l-408 0c-17 0-32-14-32-32l0-448c0-18 15-32 32-32l408 0c17 0 32 14 32 32l0 448c0 18-15 32-32 32z m11-475c0-9-7-16-16-16l-398 0c-9 0-16 7-16 16l0 438c0 9 7 16 16 16l398 0c9 0 16-7 16-16l0-438z"/>
<glyph unicode="&#57489;" d="M371 284l-98-138-112 56c-2 2-5 3-8 3-3 0-6-1-8-3l-81-122c-4-4-4-11 0-15 4-4 11-4 15 0l78 117 112-56c2-2 4-3 7-3 3 0 5 1 7 3l103 143c4 4 4 11 0 15-4 4-11 4-15 0z m-258 3c28 0 51 23 51 51 0 28-23 51-51 51-29 0-52-23-52-51 0-28 23-51 52-51z m0 82c17 0 30-14 30-31 0-17-13-31-30-31-17 0-31 14-31 31 0 17 14 31 31 31z m305 82l-386 0c-18 0-32-15-32-33l0-386c0-18 14-32 32-32l386 0c18 0 33 14 33 32l0 386c0 18-15 33-33 33z m12-410c0-11-9-21-20-21l-369 0c-11 0-21 10-21 21l0 369c0 11 10 20 21 20l369 0c11 0 20-9 20-20l0-369z m72 471l-430 0c-6 0-11-5-11-10 0-6 5-10 11-10l420 0 0-420c0-6 4-11 10-11 5 0 10 5 10 11l0 430c0 5-5 10-10 10z"/>
<glyph unicode="&#57490;" d="M480 512l-448 0c-18 0-32-14-32-32l0-448c0-18 14-32 32-32l448 0c18 0 32 14 32 32l0 448c0 18-14 32-32 32z m12-475c0-9-8-17-17-17l-438 0c-9 0-17 8-17 17l0 65 472 0z m0 86l-397 0 122 140 114-96c0 0 1 0 1 0 0-1 0-1 1-2 1 0 2 0 3 0 1-1 2-1 3-1 2 0 2 1 4 2 0 0 2 0 2 1 1 0 0 1 1 1 0 0 1 0 1 1l145 235 0-281z m0 320l-157-254-114 95c0 1-1 1-1 1 0 0 0 0 0 0-1 0-1 0-1 0-2 2-5 2-8 1 0 0 0 0 0 0-1-1-3-1-4-2 0 0 0-1-1-1 0-1-1-1-2-2l-137-158-47 0 0 352c0 9 8 16 17 16l438 0c9 0 17-7 17-16z m-338-13c-29 0-52-23-52-51 0-28 23-51 52-51 28 0 51 23 51 51 0 28-23 51-51 51z m0-82c-17 0-31 14-31 31 0 17 14 31 31 31 17 0 30-14 30-31 0-17-13-31-30-31z"/>
<glyph unicode="&#57491;" d="M71 38c-23 0-42 18-42 40l0 320-19 0 0-320c0-33 27-59 61-59l332 0c2 0 3 0 5 0l0 20c-2 0-3-1-5-1l-332 0z m322 379l-235 0c-9 0-16-6-16-15l0-217c0-8 7-14 16-14l235 0c8 0 15 6 15 14l0 217c0 9-7 15-15 15z m-4-212c0-9-7-15-16-15l-196 0c-9 0-16 6-16 15l0 178c0 9 7 15 16 15l196 0c9 0 16-6 16-15z m63 288l-355 0c-17 0-31-13-31-30l0-357c0-17 14-30 31-30l355 0c18 0 31 13 31 30l0 357c0 17-13 30-31 30z m13-383c0-8-7-15-16-15l-348 0c-9 0-16 7-16 15l0 349c0 8 7 15 16 15l348 0c9 0 16-7 16-15z"/>
<glyph unicode="&#57492;" d="M20 133l0 307c0 12 10 21 21 21l369 0c11 0 20-9 20-21l0-20 21 0 0 29c0 18-15 32-33 32l-386 0c-18 0-32-14-32-32l0-325c0-18 14-32 32-32l29 0 0 21-20 0c-11 0-21 9-21 20z m195 185c-28 0-51-23-51-52 0-28 23-51 51-51 28 0 51 23 51 51 0 29-23 52-51 52z m0-83c-17 0-30 14-30 31 0 17 13 31 30 31 17 0 30-14 30-31 0-17-13-31-30-31z m265 144l-29 0 0 0-21 0 0 0-296 0c-17 0-32-14-32-32l0-285c0-17 14-31 32-31l9 0 0 0 0 0 337 0c18 0 32 14 32 31l0 285c0 18-14 32-32 32z m12-307c0-12-10-21-21-21l-307 0 123 123 82-82 82 82 41-41 0-61z m0 82l-41 41-82-82-82 82-144-144c-11 0-20 9-20 21l0 266c0 11 9 20 20 20l328 0c11 0 21-9 21-20l0-184z"/>
<glyph unicode="&#57493;" d="M471 51c0 29-21 51-47 51l-158 0 0 104c80 5 144 71 144 152 0 85-69 154-154 154-85 0-154-69-154-154 0-81 64-147 144-152l0-104-158 0c-26 0-47-23-47-51 0-11 4-22 10-31l-10 0 0-20 430 0 0 21-10 0c6 8 10 19 10 30z m-348 307c0 74 59 134 133 134 74 0 133-60 133-134 0-73-59-133-133-133-74 0-133 60-133 133z m328-337l-31 0c0 0 0-1 0-1l-328 0c0 0 0 1 0 1l-31 0 0 41 3 0c4 11 15 20 28 20l328 0c13 0 24-9 28-20l3 0z"/>
<glyph unicode="&#57494;" d="M236 410c16 0 30 13 30 30 0 17-14 31-30 31-17 0-31-14-31-31 0-17 14-30 31-30z m167-378c-32 62-75 173-75 173l0 0 0 143 20 0 0 21-184 0 0-21 20 0 0-144c-2-7-42-117-72-175-15-29-15-29 20-29l257 0c14 0 30 0 14 32z m-198 316l102 0 0-143-102 0z m-74-328c25 50 56 132 68 164l115 0c12-31 45-111 71-162 0 0 0-1 1-2l-255 0z m207 431c17 0 31 13 31 30 0 17-14 31-31 31-17 0-31-14-31-31 0-17 14-30 31-30z"/>
<glyph unicode="&#57495;" d="M471 317l-430 0c-23 0-41-18-41-41l0-40c0-23 18-41 41-41l430 0c23 0 41 18 41 41l0 40c0 23-18 41-41 41z m21-81c0-12-10-21-21-21l-430 0c-11 0-21 9-21 21l0 40c0 12 10 21 21 21l430 0c11 0 21-9 21-21l0-40z m-21-82l-430 0c-23 0-41-19-41-41l0-41c0-23 18-41 41-41l430 0c23 0 41 18 41 41l0 41c0 22-18 41-41 41z m21-82c0-12-10-21-21-21l-430 0c-11 0-21 9-21 21l0 41c0 11 10 20 21 20l430 0c11 0 21-9 21-20l0-41z m-21 409l-430 0c-23 0-41-18-41-41l0-41c0-22 18-41 41-41l430 0c23 0 41 19 41 41l0 41c0 23-18 41-41 41z m21-82c0-11-10-20-21-20l-430 0c-11 0-21 9-21 20l0 41c0 12 10 21 21 21l430 0c11 0 21-9 21-21l0-41z"/>
<glyph unicode="&#57496;" d="M287 61l164 0 0 185-164 0z m20 164l123 0 0-143-123 0z m-246-164l164 0 0 185-164 0z m21 164l123 0 0-143-123 0z m398 287l-448 0c-18 0-32-14-32-32l0-448c0-18 14-32 32-32l448 0c18 0 32 14 32 32l0 448c0 18-14 32-32 32z m12-451c0-22-19-41-41-41l-390 0c-22 0-41 19-41 41l0 390c0 22 19 40 41 40l390 0c22 0 41-18 41-40z m-431 226l390 0 0 164-390 0z m21 143l348 0 0-123-348 0z"/>
<glyph unicode="&#57497;" d="M448 512l-384 0c-35 0-64-29-64-64l0-384c0-35 29-64 64-64l384 0c35 0 64 29 64 64l0 384c0 35-29 64-64 64z m44-451c0-22-19-41-41-41l-390 0c-22 0-41 19-41 41l0 390c0 22 19 40 41 40l308 0 0-470 20 0 0 470 62 0c22 0 41-18 41-40l0-390z"/>
<glyph unicode="&#57498;" d="M448 512l-384 0c-35 0-64-29-64-64l0-384c0-35 29-64 64-64l384 0c35 0 64 29 64 64l0 384c0 35-29 64-64 64z m44-451c0-22-19-41-41-41l-390 0c-22 0-41 19-41 41l0 390c0 22 19 40 41 40l62 0 0-470 20 0 0 470 308 0c22 0 41-18 41-40z"/>
<glyph unicode="&#57499;" d="M448 512l-384 0c-35 0-64-29-64-64l0-384c0-35 29-64 64-64l384 0c35 0 64 29 64 64l0 384c0 35-29 64-64 64z m-428-61c0 22 19 40 41 40l308 0 0-225-349 0z m471-390c0-22-18-41-40-41l-390 0c-22 0-41 19-41 41l0 185 349 0 0-225 20 0 0 470 62 0c22 0 41-18 41-40l0-390z"/>
<glyph unicode="&#57500;" d="M448 512l-384 0c-35 0-64-29-64-64l0-384c0-35 29-64 64-64l384 0c35 0 64 29 64 64l0 384c0 35-29 64-64 64z m44-451c0-22-19-41-41-41l-390 0c-22 0-41 19-41 41l0 390c0 22 19 40 41 40l62 0 0-470 20 0 0 225 349 0z m0 205l-349 0 0 225 308 0c22 0 41-18 41-40z"/>
<glyph unicode="&#57501;" d="M448 512l-384 0c-35 0-64-29-64-64l0-384c0-35 29-64 64-64l384 0c35 0 64 29 64 64l0 384c0 35-29 64-64 64z m-79-492l-308 0c-22 0-41 19-41 41l0 123 349 0z m0 185l-349 0 0 164 349 0z m123-144c0-22-19-41-41-41l-62 0 0 349 103 0z m0 328l-472 0 0 62c0 22 19 40 41 40l390 0c22 0 41-18 41-40z"/>
<glyph unicode="&#57502;" d="M448 512l-384 0c-35 0-64-29-64-64l0-384c0-35 29-64 64-64l384 0c35 0 64 29 64 64l0 384c0 35-29 64-64 64z m-325-492l-62 0c-22 0-41 19-41 41l0 308 103 0z m369 41c0-22-19-41-41-41l-308 0 0 164 349 0z m0 144l-349 0 0 164 349 0z m0 184l-472 0 0 62c0 22 19 40 41 40l390 0c22 0 41-18 41-40z"/>
<glyph unicode="&#57503;" d="M448 512l-384 0c-35 0-64-29-64-64l0-384c0-35 29-64 64-64l384 0c35 0 64 29 64 64l0 384c0 35-29 64-64 64z m-387-492c-22 0-41 19-41 41l0 308 349 0 0-349z m431 41c0-22-19-41-41-41l-62 0 0 349 103 0z m0 328l-103 0 0 0-20 0 0 0-349 0 0 62c0 22 19 40 41 40l390 0c22 0 41-18 41-40z"/>
<glyph unicode="&#57504;" d="M448 512l-384 0c-35 0-64-29-64-64l0-384c0-35 29-64 64-64l384 0c35 0 64 29 64 64l0 384c0 35-29 64-64 64z m-387-492c-22 0-41 19-41 41l0 308 103 0 0-349z m431 41c0-22-19-41-41-41l-308 0 0 349 349 0z m0 328l-349 0 0 0-20 0 0 0-103 0 0 62c0 22 19 40 41 40l390 0c22 0 41-18 41-40z"/>
<glyph unicode="&#57505;" d="M448 512l-384 0c-35 0-64-29-64-64l0-384c0-35 29-64 64-64l384 0c35 0 64 29 64 64l0 384c0 35-29 64-64 64z m-387-492c-22 0-41 19-41 41l0 390c0 22 19 40 41 40l185 0 0-471z m431 41c0-22-19-41-41-41l-185 0 0 471 185 0c22 0 41-18 41-40z"/>
<glyph unicode="&#57506;" d="M512 511c0 0-9 1-23 1-102 0-519-30-487-512 0 0 2 0 5 0 56 0 521 15 505 511z m-386-158c2 3 5 5 7 8l74-92c-25-27-47-55-68-81l-2 1-2-6c-65-83-107-152-112-160-6 140 29 251 103 330z m23-192l159-53c-95-62-203-79-262-84 36 51 71 97 103 137z m226 3c-14-15-29-28-45-40l-166 56c48 57 91 103 129 140l167-19c-19-52-47-98-85-137z m-61 176c104 97 168 124 175 127-1-52-9-100-22-144z m176 149l0 1c-95-34-189-117-268-204l-72 90c118 105 287 114 339 114l1 0c0-1 0-1 0-1z"/>
<glyph unicode="&#57507;" d="M484 512c-64 0-297-7-394-99-73-69-72-167-16-244-43-71-60-150-60-150-4-5-3-13 2-17 5-4 12-3 16 2 0 0 17 76 58 146 5-5 9-10 15-15 46-44 103-68 159-68 48 0 94 17 133 54 88 84 104 391 104 391 0 0-6 0-17 0z m-103-375c-32-31-73-48-117-48-51 0-102 22-144 62-6 6-12 12-17 18 4 7 8 13 13 19 61 78 160 128 160 128 4 5 3 12-3 16-5 4-12 3-16-2 0 0-99-49-159-127-4-5-7-9-10-14-21 31-32 64-32 98 0 41 17 79 49 110 71 67 237 92 372 93-7-97-34-295-96-353z"/>
<glyph unicode="&#57508;" d="M255 165c-2-3-5-7-8-10l-110-110c-26-25-67-25-92 0-25 25-25 66 0 92l110 110c3 3 7 6 10 8l-1 1 36 35c-23 0-46-8-63-26l-110-110c-36-35-36-93 0-128 35-36 93-36 128 0l110 110c18 17 26 40 26 63l-35-36z m230 320c-35 36-93 36-128 0l-110-110c-18-17-26-40-26-63l35 36 1-1c2 3 5 7 8 10l110 110c26 25 67 25 92 0 25-25 25-66 0-92l-110-110c-3-3-7-6-10-8l1-1-36-35c23 0 46 8 63 26l110 110c36 35 36 93 0 128z m-284-266l18-18 92 92-18 18z"/>
<glyph unicode="&#57509;" d="M488 444l-44 44c-32 32-83 32-115 0l-58-58 14-15 58 58c24 24 63 24 87 0l43-43c25-24 25-63 0-87l-144-145c-25-24-63-24-87 0l-44 44-14-15 43-43c32-33 84-33 116 0l145 144c32 33 32 84 0 116z m-319-406c-24-24-63-24-87 0l-43 44c-24 24-24 63 0 87l145 145c24 24 63 24 87 0l43-44 15 15-44 43c-32 33-84 33-116 0l-145-144c-32-33-32-84 0-116l44-44c32-32 83-32 116 0l58 58-15 14z"/>
<glyph unicode="&#57510;" d="M445 39c0-9-7-17-16-17l-390 0c-9 0-17 8-17 17l0 389c0 10 8 17 17 17l228 0 0 22-234 0c-18 0-33-15-33-33l0-401c0-18 15-33 33-33l401 0c19 0 34 15 34 33l0 234-23 0z m56 473c0 0-1 0-1 0l-177 0c-6 0-11-5-11-11 0-6 5-11 11-11l150 0-292-293c-4-4-4-11 0-15 4-5 11-5 16 0l293 293 0-152c0-6 5-11 11-11 6 0 11 5 11 11l0 178c0 6-5 11-11 11z"/>
<glyph unicode="&#57511;" d="M446 39c0-9-8-17-17-17l-390 0c-9 0-16 8-16 17l0 389c0 10 7 17 16 17l229 0 0 22-234 0c-19 0-34-15-34-33l0-401c0-18 15-33 34-33l401 0c18 0 33 15 33 33l0 234-22 0z m62 470c-4 4-11 4-15 0l-292-292 0 150c0 6-5 11-12 11-6 0-11-5-11-11l0-177c0 0 0-1 0-1 0-6 5-11 12-11l178 0c6 0 11 5 11 11 0 6-5 11-11 11l-153 0 293 293c5 5 5 12 0 16z"/>
<glyph unicode="&#57512;" d="M0 390l24 0 0 24-24 0z m98 24l0-24 414 0 0 24z m-98-170l24 0 0 24-24 0z m98 0l414 0 0 24-414 0z m-98-146l24 0 0 24-24 0z m98 0l414 0 0 24-414 0z"/>
<glyph unicode="&#57513;" d="M32 432l448 0c9 0 16 7 16 16 0 9-7 16-16 16l-448 0c-9 0-16-7-16-16 0-9 7-16 16-16z m448-160l-448 0c-9 0-16-7-16-16 0-9 7-16 16-16l448 0c9 0 16 7 16 16 0 9-7 16-16 16z m0-192l-448 0c-9 0-16-7-16-16 0-9 7-16 16-16l448 0c9 0 16 7 16 16 0 9-7 16-16 16z"/>
<glyph unicode="&#57514;" d="M52 454l-35 0c-9 0-17-8-17-18l0-35c0-9 8-17 17-17l35 0c10 0 18 8 18 17l0 35c0 10-8 18-18 18z m0-163l-35 0c-9 0-17-8-17-18l0-34c0-10 8-18 17-18l35 0c10 0 18 8 18 18l0 34c0 10-8 18-18 18z m0-163l-35 0c-9 0-17-8-17-17l0-35c0-10 8-18 17-18l35 0c10 0 18 8 18 18l0 35c0 9-8 17-18 17z m76 279l372 0c7 0 12 5 12 12 0 6-5 12-12 12l-372 0c-6 0-12-6-12-12 0-7 6-12 12-12z m372-139l-372 0c-6 0-12-6-12-12 0-6 6-12 12-12l372 0c7 0 12 6 12 12 0 6-5 12-12 12z m0-163l-372 0c-6 0-12-6-12-12 0-6 6-12 12-12l372 0c7 0 12 6 12 12 0 6-5 12-12 12z"/>
<glyph unicode="&#57515;" d="M511 502c0 1 0 2 0 3 0 1 0 1 0 2-1 1-2 1-3 2 0 0-1 1-1 2-1 0-1 0-2 0-1 0-1 0-3 0-2 1-3 0-5 0 0 0 0 0 0 0l-492-204c-2-1-2-3-3-5 0 0 0 0 0 0 0 0 0 0 0 0-1-2-1-4-1-6 0-1 0-2 0-2 0-1 0-1 0-2 1-1 2-2 4-3 0 0 0-1 1-1l0 0c2-1 4-1 5 0l257-20 20-256c-1-2-1-4 0-5l0-2c1-1 2-1 3-2 0-1 0-1 1-2 0 0 1 0 1 0 1 0 3 0 4 0 2 0 3 0 4 0 0 0 1 0 1 0 1 1 1 1 1 2 1 1 2 1 3 2l205 492c0 0 0 0 0 1 0 1 0 2 0 4z m-208-450l-17 225c0 1 0 2 0 3l-1 2c0 1-2 2-3 3-1 0-1 0-1 0l0 0c-3 2-5 2-7 1l-223 17 431 179z"/>
<glyph unicode="&#57516;" d="M256 399c-40 0-72-32-72-71 0-40 32-72 72-72 40 0 72 32 72 72 0 39-32 71-72 71z m0-122c-28 0-51 22-51 51 0 28 23 51 51 51 28 0 51-23 51-51 0-29-23-51-51-51z m177 137c4-9 8-17 10-27 29-16 49-47 49-83 0-37-52-130-93-195-7 12-15 24-22 37-4-7-8-14-11-21 18-31 33-53 33-53 0 0 113 168 113 232 0 52-33 95-79 110z m-177 88c-85 0-154-74-154-164 0-91 154-328 154-328 0 0 154 237 154 328 0 90-69 164-154 164z m-133-164c0 79 60 143 133 143 73 0 133-64 133-143 0-61-84-211-133-289-49 78-133 228-133 289z m-10-229c-41 65-93 158-93 195 0 36 20 67 49 83 2 9 6 18 10 27-46-15-79-58-79-110 0-64 113-232 113-232 0 0 15 22 33 53-3 7-7 14-11 21-7-13-15-25-22-37z"/>
<glyph unicode="&#57517;" d="M451 262c0 36-28 65-62 66l0 51c0 73-59 133-133 133-74 0-133-60-133-133l0-51c-34-1-62-30-62-66l0-196c0-2 1-3 1-5l-1 0 0-61 390 0 0 61-1 0c0 2 1 3 1 5z m-308 117c0 62 51 113 113 113 62 0 113-51 113-113l0-51-226 0z m287-358l-41 0c0 0 0-1 0-1l-266 0c0 0 0 1 0 1l-41 0 0 245c0 23 18 41 41 41l266 0c23 0 41-18 41-41z m-174 184c-6 0-10-5-10-10l0-82c0-6 4-11 10-11 6 0 10 5 10 11l0 82c0 5-4 10-10 10z"/>
<glyph unicode="&#57518;" d="M188 299c0 4 1 7 1 10l-102 0 0-20 102 0c0 4-1 7-1 10z m-46 144l72-73c5 5 10 10 15 14l-73 73z m315-1l-15 15-72-72c6-5 10-10 15-15z m-167-32c3 0 6 1 10 1 3 0 6-1 10-1l0 102-20 0z m0-221l0-102 20 0 0 102c-4 0-7-1-10-1-4 0-7 1-10 1z m120 120c0-3 1-6 1-10 0-3-1-6-1-10l102 0 0 20z m-40-95l73-72 14 14-72 72c-5-5-9-10-15-14z m-370-200l14-14 215 214c-6 4-10 9-15 14z"/>
<glyph unicode="&#57519;" d="M328 410l0-236c0-40-32-72-72-72-40 0-72 32-72 72l0 236-123 0 0-218c0-106 88-192 195-192 107 0 195 86 195 192l0 218z m-246-21l82 0 0-82-82 0z m348-205c0-90-73-164-164-164l-20 0c-91 0-164 74-164 164l0 104 82-1 0-113c0-51 41-92 92-92 51 0 92 41 92 92l0 113 82 1 0-104z m0 123l-82 0 0 82 82 0 0-82z"/>
<glyph unicode="&#57520;" d="M509 457c-3 3-6 3-10 2-1 0-2 1-4 1l-479 0c-1 0-2-1-3-1-4 1-7 1-10-2-3-3-3-6-2-10 0-1-1-2-1-3l0-376c0-9 8-16 16-16l479 0c9 0 16 7 16 16l0 376c0 1 0 2 0 3 1 3 1 7-2 10z m-38-18l-215-162-215 162z m20-352c0-9-7-16-16-16l-438 0c-9 0-16 7-16 16l0 336c0 2 0 4 1 6l226-170c1 0 1-1 1-1 2-2 4-3 7-3 3 0 5 1 7 3 0 0 0 1 1 1l226 170c0-2 1-4 1-6l0-336z"/>
<glyph unicode="&#57521;" d="M512 332l0 0 0 0 0 16-256 164-256-164 0-16 0 0 0 0 0-321 0 0 0 0 0-11 17 0 0 0 0 0 478 0 0 0 0 0 17 0 0 11 0 0 0 0z m-256 156l232-149-232-192-232 192z m-235-173l139-115-139-165z m14-294l142 165 76-63 3 3 3-3 76 63 142-165z m456 14l-139 165 139 115z"/>
<glyph unicode="&#57522;" d="M256 328c-6 0-10-5-10-11l0-184c0-6 4-10 10-10 6 0 10 4 10 10l0 184c0 6-4 11-10 11z m113-133c0-6 4-11 10-11 6 0 10 5 10 11l0 204c0 6-4 11-10 11-6 0-10-5-10-11z m0 297l-123-103-123 62-123-53 0-378 123 62 123-41 123 82 143-82 0 369z m123-413l-112 61-11 8-12-8-115-77-113 39-8 2-7-4-94-46 0 330 103 44 115-58 11-5 10 8 111 93 122-67 0-320z m-359 290c-6 0-10-5-10-11l0-204c0-6 4-11 10-11 6 0 10 5 10 11l0 204c0 6-4 11-10 11z"/>
<glyph unicode="&#57523;" d="M266 389l0 41 31 0c6 0 10 5 10 10 0 6-4 10-10 10l-82 0c-5 0-10-4-10-10 0-5 5-10 10-10l31 0 0-41c-125-8-246-104-246-223 0 1 0-43 0-43l512 0 0 41c0 119-121 217-246 225z m225-245l-470 0c0 5-1 10-1 16 0 115 123 209 236 208 113 0 236-93 236-208 0-6-1-11-1-16z m11-62l-492 0c-5 0-10-5-10-10 0-6 5-10 10-10l492 0c5 0 10 4 10 10 0 5-5 10-10 10z"/>
<glyph unicode="&#57524;" d="M385 410l-119 0 0-1c-2 0-4 1-7 1l-136 0c-72 0-123-55-123-123 0-62 43-113 104-121l19-166 123 62-17 102 30 0c3 0 5 0 7 1l0-1 119 0 127-102 0 450z m-245-378l-15 132 83 0 15-91z m228 152l-102 0 0 0-143 0c-57 0-103 46-103 103 0 56 46 102 103 102l123 0 0 0 122 0z m122-82l-101 85 0 199 101 85z"/>
<glyph unicode="&#57525;" d="M393 408c-17 60-72 104-137 104-65 0-120-44-137-104-15-3-27-16-27-33l0-34c0-19 15-34 33-34l2 0c11-23 27-42 48-56l30-219c0-18 14-32 31-32l40 0c17 0 31 14 31 32l30 219c21 14 37 33 48 56l2 0c18 0 33 16 33 34l0 34c0 17-12 30-27 33z m-137 84c53 0 98-35 115-82l-230 0c17 47 62 82 115 82z m31-460c0-6-5-12-11-12l-40 0c-6 0-11 6-11 12l-28 206c18-8 38-13 59-13 21 0 41 5 59 13z m-31 214c-45 0-85 25-106 61l212 0c-21-36-61-61-106-61z m143 102c0-11-9-20-20-20l-246 0c-11 0-20 9-20 20l0 21c0 11 9 20 20 20l246 0c11 0 20-9 20-20l0-21z"/>
<glyph unicode="&#57526;" d="M322 512l-132 0c-37 0-67-28-67-63l0-284c0-34 30-63 67-63l56 0 0-82-92 0c-6 0-11-4-11-10 0-5 5-10 11-10l204 0c6 0 11 5 11 10 0 6-5 10-11 10l-92 0 0 82 56 0c37 0 67 29 67 63l0 284c0 35-30 63-67 63z m47-123l-52 0c-5 0-10-4-10-10 0-6 5-10 10-10l52 0 0-62-52 0c-5 0-10-4-10-10 0-6 5-10 10-10l52 0 0-62-52 0c-5 0-10-4-10-10 0-6 5-10 10-10l52 0 0-41c0-23-19-41-41-41l-144 0c-22 0-41 18-41 41l0 41 52 0c5 0 10 4 10 10 0 6-5 10-10 10l-52 0 0 62 52 0c5 0 10 4 10 10 0 6-5 10-10 10l-52 0 0 62 52 0c5 0 10 4 10 10 0 6-5 10-10 10l-52 0 0 62c0 22 19 40 41 40l144 0c22 0 41-18 41-40l0-62z"/>
<glyph unicode="&#57527;" d="M256 110c56 0 101 45 101 101l0 145c0 56-45 101-101 101-56 0-101-45-101-101l0-145c0-56 45-101 101-101z m-82 247c0 45 37 82 82 82 45 0 82-37 82-82l0-147c0-45-37-82-82-82-45 0-82 37-82 82z m219-119l0-50c0-63-55-115-122-115l-30 0c-67 0-122 52-122 115l0 50-18 0 0-40c0-79 63-143 141-143l5 0 0-37-28 0c-5 0-9-4-9-9 0-5 4-9 9-9l74 0c5 0 9 4 9 9 0 5-4 9-9 9l-28 0 0 37 5 0c78 0 141 64 141 143l0 40z"/>
<glyph unicode="&#57528;" d="M389 266l62 0 0 21-62 0z m-73 123l-223 0c-17 0-32-15-32-33l0-200c0-18 15-33 32-33l223 0c18 0 32 15 32 33l0 200c0 18-14 33-32 33z m12-227c0-10-8-19-18-19l-211 0c-9 0-17 9-17 19l0 188c0 10 8 19 17 19l211 0c10 0 18-9 18-19z m152 289l-448 0c-18 0-32-15-32-33l0-324c0-18 14-33 32-33l448 0c18 0 32 15 32 33l0 324c0 18-14 33-32 33z m11-352c0-9-7-17-16-17l-438 0c-9 0-16 8-16 17l0 314c0 9 7 17 16 17l438 0c9 0 16-8 16-17z m-102 229l62 0 0 20-62 0z"/>
<glyph unicode="&#57529;" d="M501 267l-490 0c-6 0-11-5-11-11 0-6 5-11 11-11l490 0c6 0 11 5 11 11 0 6-5 11-11 11z"/>
<glyph unicode="&#57530;" d="M444 512l-376 0c-37 0-68-31-68-68l0-376c0-37 31-68 68-68l376 0c37 0 68 31 68 68l0 376c0 37-31 68-68 68z m46-445c0-25-20-45-45-45l-378 0c-25 0-45 20-45 45l0 378c0 25 20 45 45 45l378 0c25 0 45-20 45-45z m-123 200l-222 0c-6 0-11-5-11-11 0-6 5-11 11-11l222 0c6 0 11 5 11 11 0 6-5 11-11 11z"/>
<glyph unicode="&#57531;" d="M471 307l-430 0c-23 0-41-18-41-41l0-20c0-23 18-41 41-41l430 0c23 0 41 18 41 41l0 20c0 23-18 41-41 41z m21-61c0-12-10-21-21-21l-430 0c-11 0-21 9-21 21l0 20c0 12 10 21 21 21l430 0c11 0 21-9 21-21l0-20z"/>
<glyph unicode="&#57532;" d="M256 512c-141 0-256-115-256-256 0-141 115-256 256-256 141 0 256 115 256 256 0 141-115 256-256 256z m0-490c-129 0-234 105-234 234 0 129 105 234 234 234 129 0 234-105 234-234 0-129-105-234-234-234z m111 245l-222 0c-6 0-11-5-11-11 0-6 5-11 11-11l222 0c6 0 11 5 11 11 0 6-5 11-11 11z"/>
<glyph unicode="&#57533;" d="M327 512l-270 0c-9 0-16-7-16-16l0-480c0-9 7-16 16-16l398 0c9 0 16 7 16 16l0 352z m1-30l113-113-113 0z m123-462l-390 0 0 472 246 0 0-123 0 0 0-21 143 0 0 12 1 0 0-340z m-287 185l184 0 0 20-184 0z"/>
<glyph unicode="&#57534;" d="M266 61c17 0 31 14 31 31 0 17-14 31-31 31-17 0-31-14-31-31 0-17 14-31 31-31z m88 451l-196 0c-36 0-66-29-66-64l0-384c0-35 30-64 66-64l196 0c37 0 66 29 66 64l0 384c0 35-30 64-66 64z m45-451c0-22-18-41-41-41l-204 0c-23 0-41 19-41 41l0 103 286 0z m0 123l-286 0 0 226 286 0z m0 246l-286 0 0 21c0 22 18 40 41 40l204 0c23 0 41-18 41-40z"/>
<glyph unicode="&#57535;" d="M480 512l-448 0c-18 0-32-14-32-32l0-346c0-17 14-32 32-32l132 0 0-82-41 0 0-20 266 0 0 20-41 0 0 82 132 0c18 0 32 14 32 32l0 346c0 18-14 32-32 32z m-152-492l-144 0 0 82 144 0z m163 123c0-11-9-20-20-20l-430 0c-11 0-21 9-21 20l0 62 471 0z m0 82l-471 0 0 246c0 11 10 20 21 20l430 0c11 0 21-9 21-20l0-246z"/>
<glyph unicode="&#57536;" d="M335 451l-69 0 0 51c0 5-4 10-10 10l-102 0c-6 0-11-5-11-10 0-6 5-10 11-10l92 0 0-41-69 0c-53 0-95-44-95-97l0-257c0-54 42-97 95-97l158 0c53 0 95 43 95 97l0 257c0 53-42 97-95 97z m75-354c0-42-34-76-75-76l-158 0c-41 0-75 34-75 76l0 257c0 42 34 76 75 76l158 0c41 0 75-34 75-76l0-257z m-154 292c-6 0-10-4-10-10l0-82c0-6 4-10 10-10 6 0 10 4 10 10l0 82c0 6-4 10-10 10z"/>
<glyph unicode="&#57537;" d="M511 266c-5 137-117 246-255 246-138 0-250-109-255-246l-1 0 0-20 1 0c5-137 117-246 255-246 0 0 0 0 0 0 0 0 0 0 0 0 138 0 250 109 255 246l1 0 0 20z m-73 138c-18-7-54-20-101-28-9 49-24 89-42 112 57-10 108-40 143-84z m-253-158l143 0c-1-32-4-61-8-87-20 3-41 5-64 5-22 0-44-2-64-5-4 26-7 55-7 87z m0 20c0 32 3 61 7 87 20-3 42-5 64-5 23 0 44 2 64 5 4-26 7-55 8-87z m71 225c20 0 47-44 61-118-19-3-39-4-60-4-22 0-43 1-62 4 14 74 41 118 61 118z m-39-3c-18-23-33-63-42-112-47 8-83 21-101 28 35 44 86 75 143 84z m-155-99c4-2 48-21 110-33-5-28-7-58-8-90l-143 0c2 46 17 88 41 123z m102-143c1-32 3-62 8-90-62-11-105-31-110-33-24 35-39 77-41 123z m-90-138c18 7 54 20 101 28 9-49 24-89 42-112-57 10-108 40-143 84z m182-87c-20 0-47 44-61 118 19 3 40 4 62 4 21 0 41-1 60-4-14-74-41-118-61-118z m39 3c18 23 33 63 42 112 47-8 83-21 101-28-35-44-85-74-143-84z m155 99c-5 2-48 22-110 33 5 28 7 58 8 90l143 0c-2-46-17-88-41-123z m-102 143c-1 32-3 62-8 90 62 11 106 31 110 33 24-35 39-77 41-123z"/>
<glyph unicode="&#57538;" d="M61 205l390 0 0 20-390 0z m0-123l390 0 0 20-390 0z m41 184l103 0c22 0 41 19 41 41l0 82c0 23-19 41-41 41l-103 0c-22 0-41-18-41-41l0-82c0-22 19-41 41-41z m-20 123c0 11 9 21 20 21l103 0c11 0 20-10 20-21l0-82c0-11-9-20-20-20l-103 0c-11 0-20 9-20 20z m-21-246l390 0 0 21-390 0z m419 369l-448 0c-18 0-32-14-32-32l0-448c0-18 14-32 32-32l448 0c18 0 32 14 32 32l0 448c0 18-14 32-32 32z m12-471c0-11-10-21-21-21l-430 0c-11 0-21 10-21 21l0 430c0 11 10 20 21 20l430 0c11 0 21-9 21-20l0-430z m-205 225l164 0 0 21-164 0z m0 123l164 0 0 21-164 0z m0-61l164 0 0 20-164 0z"/>
<glyph unicode="&#57539;" d="M367 476c3 5 1 11-3 14-5 3-11 1-14-4l-81-138 23 0z m-2-128l103 85c4 4 4 10 1 15-4 4-11 4-15 1l-122-101z m146-48c0 2 0 5 0 7l-510 0c0-2 0-5 0-7 0-1-1-2-1-3 0-2 1-3 2-4 9-99 75-182 165-215-2-5-3-11-3-16 0-23 17-41 38-41l108 0c21 0 38 18 38 41 0 5-1 11-3 16 90 33 156 116 165 215 1 1 2 2 2 4 0 1-1 2-1 3z m-210-259l-90 0c-11 0-21 9-25 21l-2 0 0 20 142 0c1-3 2-6 2-10 0-17-12-31-27-31z m47 61l0 1-38 0c0 0 0 0 0 0l-9 0c0 0 0 0 0 0l-90 0c0 0 0 0 0 0l-9 0c0 0 0 0 0 0l-38 0 0-1c-75 32-130 101-141 185l466 0c-11-84-66-153-141-185z"/>
<glyph unicode="&#57540;" d="M323 512l-23 0 0-16 0 0 0 0 0-299c-34 33-102 35-162 1-68-39-100-109-72-157 28-47 106-55 174-16 48 27 77 69 81 109l2 0 0 339 117-117 16 16z m-102-469c-59-31-121-26-139 12-17 38 16 94 75 125 59 31 122 26 139-12 18-38-16-94-75-125z"/>
<glyph unicode="&#57541;" d="M512 389l0 1 0 102-21 0-285-62-1 0 0 0 0 0 0-1 0-81 0 0 0 0 0-163c-30 26-86 27-135-1-58-32-85-90-61-129 23-40 89-46 146-14 46 25 72 67 70 102l0 0 0 188 266 54 0-139c-29 27-85 28-135 0-57-32-84-90-61-130 24-39 90-46 147-14 46 26 72 67 69 103l1 0 0 184z m-373-331c-49-26-101-21-115 9-14 31 13 76 62 101 49 25 101 21 115-10 15-30-13-75-62-100z m287 61c-49-25-101-21-115 10-15 30 13 75 62 100 49 25 100 21 115-9 14-31-14-76-62-101z m-201 233l0 61 266 54 0-61z"/>
<glyph unicode="&#57542;" d="M379 143l-246 0c-6 0-10-4-10-10 0-6 4-10 10-10l246 0c6 0 10 4 10 10 0 6-4 10-10 10z m39 369l-324 0c-18 0-33-14-33-32l0-448c0-18 15-32 33-32l324 0c18 0 33 14 33 32l0 448c0 18-15 32-33 32z m12-475c0-9-7-17-16-17l-316 0c-9 0-16 8-16 17l0 438c0 9 7 16 16 16l316 0c9 0 16-7 16-16l0-438z m-51 188l-246 0c-6 0-10-4-10-10 0-6 4-10 10-10l246 0c6 0 10 4 10 10 0 6-4 10-10 10z m0 82l-246 0c-6 0-10-4-10-10 0-6 4-10 10-10l246 0c6 0 10 4 10 10 0 6-4 10-10 10z m-246 62l123 0c6 0 10 4 10 10 0 6-4 10-10 10l-123 0c-6 0-10-4-10-10 0-6 4-10 10-10z"/>
<glyph unicode="&#57543;" d="M123 143l164 0 0 21-164 0z m0 62l266 0 0 20-266 0z m246 246l0 20-41 0 0 7c0 19-14 34-31 34l-82 0c-17 0-31-15-31-34l0-7-41 0 0-20-102 0 0-451 430 0 0 451z m-205 0l41 0 0 23c0 10 7 18 15 18l72 0c8 0 15-8 15-18l0-23 41 0 0-62-184 0z m287-431l-390 0 0 410 82 0 0-61 226 0 0 61 82 0z m-328 246l266 0 0 21-266 0z"/>
<glyph unicode="&#57544;" d="M379 246l-246 0c-6 0-10-5-10-11 0-5 4-10 10-10l246 0c6 0 10 5 10 10 0 6-4 11-10 11z m65 266l-376 0c-26 0-48-21-48-48l0-416c0-26 22-48 48-48l376 0c26 0 48 22 48 48l0 416c0 27-22 48-48 48z m27-464c0-15-12-28-27-28l-376 0c-15 0-27 13-27 28l0 416c0 15 12 28 27 28l376 0c15 0 27-13 27-28l0-416z m-92 95l-246 0c-6 0-10-4-10-10 0-6 4-10 10-10l246 0c6 0 10 4 10 10 0 6-4 10-10 10z m0 205l-246 0c-6 0-10-4-10-10 0-6 4-10 10-10l246 0c6 0 10 4 10 10 0 6-4 10-10 10z"/>
<glyph unicode="&#57545;" d="M369 451l0 20-41 0 0 7c0 19-14 34-31 34l-82 0c-17 0-31-15-31-34l0-7-41 0 0-20-102 0 0-451 430 0 0 451z m-205 0l41 0 0 23c0 10 7 18 15 18l72 0c8 0 15-8 15-18l0-23 41 0 0-62-184 0z m287-431l-390 0 0 410 82 0 0-61 226 0 0 61 82 0z m-289 182c-4 4-11 4-16 0-4-5-4-12 0-16l80-80c2-2 5-3 8-3 3 0 6 0 8 3l144 164c4 4 4 10 0 14-4 4-10 4-14 0l-137-155z"/>
<glyph unicode="&#57546;" d="M448 512l-384 0c-35 0-64-29-64-64l0-384c0-35 29-64 64-64l384 0c35 0 64 29 64 64l0 384c0 35-29 64-64 64z m44-451c0-22-19-41-41-41l-390 0c-22 0-41 19-41 41l0 328 328 0 0-369 21 0 0 369 123 0 0-328z m0 349l-472 0 0 41c0 22 19 40 41 40l390 0c22 0 41-18 41-40z m-215-205l-185 0c-6 0-10-5-10-10 0-6 4-11 10-11l185 0c5 0 10 5 10 11 0 5-5 10-10 10z m0 82l-185 0c-6 0-10-5-10-11 0-5 4-10 10-10l185 0c5 0 10 5 10 10 0 6-5 11-10 11z m0-164l-185 0c-6 0-10-5-10-10 0-6 4-11 10-11l185 0c5 0 10 5 10 11 0 5-5 10-10 10z"/>
<glyph unicode="&#57547;" d="M491 286l0-266-470 0 0 471 266 0 0 21-255 0c-18 0-32-15-32-32l0-448c0-18 14-32 32-32l448 0c18 0 32 14 32 32l0 254z m-409-175l29-29 103 44 250 250 29 29c25 25 25 64 0 89-24 24-63 24-88 0l-29-30-250-250z m338 368c16 16 42 16 59 0 16-16 16-43 0-59l-30-29-59 59z m-44-44l59-59-221-221-59 59z m-177-294l-88-30 30 88z"/>
<glyph unicode="&#57548;" d="M471 20l-451 0 0 451 267 0 0 20-287 0 0-491 491 0 0 287-20 0 0-267z m-305 233l-15-15 0 0-19-19-9-96 96 9 293 293-87 87-86-86 0 0z m44-101l-65-7 7 65 14 14 58-58z m215 331l58-58-57-57-58 58z m-14-130l-173-173-58 58 173 173z"/>
<glyph unicode="&#57549;" d="M379 307l-246 0c-6 0-10-4-10-10 0-6 4-10 10-10l246 0c6 0 10 4 10 10 0 6-4 10-10 10z m0-82l-246 0c-6 0-10-4-10-10 0-6 4-10 10-10l246 0c6 0 10 4 10 10 0 6-4 10-10 10z m69 287l-384 0c-35 0-64-29-64-64l0-384c0-35 29-64 64-64l384 0c35 0 64 29 64 64l0 384c0 35-29 64-64 64z m44-451c0-22-19-41-41-41l-390 0c-22 0-41 19-41 41l0 390c0 22 19 40 41 40l390 0c22 0 41-18 41-40z m-113 328l-246 0c-6 0-10-4-10-10 0-6 4-10 10-10l246 0c6 0 10 4 10 10 0 5-4 10-10 10z m0-246l-246 0c-6 0-10-4-10-10 0-6 4-10 10-10l246 0c6 0 10 4 10 10 0 6-4 10-10 10z"/>
<glyph unicode="&#57550;" d="M34 443c-13-5-23-17-23-32l0-377c0-19 15-34 34-34l377 0c15 0 27 9 32 22l-420 0z m289-42l-178 0 0-23 178 0 0 23z m143 111l-353 0c-20 0-35-15-35-34l0-377c0-19 15-34 35-34l353 0c19 0 35 15 35 34l0 377c0 19-16 34-35 34z m12-406c0-9-8-17-17-17l-343 0c-10 0-18 8-18 17l0 367c0 9 8 17 18 17l343 0c9 0 17-8 17-17l0-367z m-333 161l289 0 0 22-289 0z m0-89l289 0 0 22-289 0z"/>
<glyph unicode="&#57551;" d="M92 512l-61 0c-17 0-31-14-31-32l0-448c0-18 14-32 31-32l61 0c17 0 31 14 31 32l0 448c0 18-14 32-31 32z m10-471c0-11-9-21-20-21l-41 0c-11 0-21 10-21 21l0 225 82 0z m0 246l-82 0 0 184c0 11 10 20 21 20l41 0c11 0 20-9 20-20z m338 61l-204 0c-6 0-11-4-11-10 0-6 5-10 11-10l204 0c6 0 11 4 11 10 0 6-5 10-11 10z m40 123l-29 0 0 41-21 0 0-41-82 0 0 41-20 0 0-41-82 0 0 41-21 0 0-41-30 0c-17 0-31-14-31-31l0-409c0-17 14-31 31-31l285 0c18 0 32 14 32 31l0 409c0 17-14 31-32 31z m12-435c0-8-8-16-16-16l-276 0c-9 0-16 8-16 16l0 399c0 8 7 16 16 16l276 0c8 0 16-7 16-16z m-52 210l-204 0c-6 0-11-5-11-11 0-5 5-10 11-10l204 0c6 0 11 5 11 10 0 6-5 11-11 11z m0-103l-204 0c-6 0-11-4-11-10 0-6 5-10 11-10l204 0c6 0 11 4 11 10 0 6-5 10-11 10z"/>
<glyph unicode="&#57552;" d="M102 61l62 0 0 21-62 0z m82 0l41 0 0 21-41 0z m287 277l-82 164c0 5-5 10-10 10l-91 0 0 0-63 0-92 0c-6 0-10-5-10-10l-82-164c0-1 1-2 1-3 0-3-1-5-1-7l0-308c0-11 9-20 20-20l390 0c11 0 20 9 20 20l0 308c0 2-1 4-1 7 0 1 1 2 1 3z m-97 153l71-143-138 0 0 0-2 0-15 143z m-128 0l20 0 21-143-62 0z m-21-163l62 0 0-144-62 0z m-87 163l85 0-16-143-2 0 0 0-138 0z m313-471l-390 0 0 308 144 0 0-164 102 0 0 164 143 0 0-308z"/>
<glyph unicode="&#57553;" d="M470 53l-113 447c-2 7-8 12-15 12-1 0-2 0-3 0 0 0-1 0-1 0l-164 0c0 0-1 0-1 0-1 0-2 0-3 0-7 0-13-5-15-12l-114-447c-2-8 3-17 12-19l121-33c1-1 2-1 4-1 7 0 13 5 15 12l63 248 63-248c2-7 8-12 15-12 1 0 3 0 4 1l121 33c9 2 14 11 11 19z m-133-32l-71 279 2 7-21 0-72-286-113 31 96 378 47 0 0 21-42 0 1 2 0 39 184 0 0-39 1-2-42 0 0-21 47 0 96-378z"/>
<glyph unicode="&#57554;" d="M512 358l-256 133-256-133 256-133z m-256 110l210-110-210-109-210 109z m0-321l-190 99-46 0 236-123 236 123-46 0z m0-103l-190 99-46 0 236-122 236 122-46 0z"/>
<glyph unicode="&#57555;" d="M511 501c0 0 0 1 0 1 0 1 0 2-1 3 0 0 1 1 0 1 0 1-1 1-1 1 0 1 0 2-1 2 0 0-1 0-1 1 0 0 0 0-1 0 0 1 0 0-1 0-1 1-1 1-2 1-1 0-2 1-4 0-1 0-1 0-2-1-1 0-3 0-3-1l-1-1-488-243c-1 0-2-2-3-4 0 0 0 0 0 0 0 0 0 0 0 0-1-2-1-4-1-6 0-1 0-2 0-2 1-1 0-1 1-2 0-1 2-2 3-3 0 0 0-1 1-1l1 0c1 0 1-1 2-1l178-60 59-178c0 0 0 0 0 0l1-3c1-1 2-1 3-2 0 0 0-1 1-1 0-1 1 0 1 0 1-1 3-1 5-1 1 0 2 0 3 0 0 0 1 0 1 0 1 1 1 2 1 2 1 1 2 1 3 2l245 491c1 0 0 1 0 1 1 1 1 2 1 4z m-253-464l-52 155 258 258z m-67 169l-154 52 409 204z"/>
<glyph unicode="&#57556;" d="M81 0l140 0 0 512-140 0z m24 489l92 0 0-466-92 0z m186 23l0-512 140 0 0 512z m116-489l-92 0 0 466 92 0z"/>
<glyph unicode="&#57557;" d="M136 512c-9 0-16-7-16-15l0-482c0-8 7-15 16-15 8 0 15 7 15 15l0 482c0 8-7 15-15 15z m240 0c-8 0-15-7-15-15l0-482c0-8 7-15 15-15 9 0 16 7 16 15l0 482c0 8-7 15-16 15z"/>
<glyph unicode="&#57558;" d="M418 102l-33 0 66 127-195 283-195-283 66-127-33 0c-18 0-33-15-33-34l0-34c0-19 15-34 33-34l324 0c18 0 33 15 33 34l0 34c0 19-15 34-33 34z m-162 374l3-5-6 0z m-171-248l161 233 0-113 20 0 0 113 161-233-65-126-212 0z m314-208l-286 0c-17 0-31 14-31 31 0 17 14 31 31 31l286 0c17 0 31-14 31-31 0-17-14-31-31-31z m-143 144c40 0 72 32 72 72 0 39-32 71-72 71-40 0-72-32-72-71 0-40 32-72 72-72z m0 123c28 0 51-23 51-51 0-29-23-52-51-52-28 0-51 23-51 52 0 28 23 51 51 51z"/>
<glyph unicode="&#57559;" d="M164 512l0-416 92-96 92 96 0 416z m92-482l-70 72 140 0z m72 93l-144 0 0 266 144 0z m-144 287l0 82 144 0 0-82-144 0z"/>
<glyph unicode="&#57560;" d="M256 512c-51 0-61-43-61-96l0-304c0-53 61-112 61-112 0 0 61 59 61 112l0 304c0 53-10 96-61 96z m-41-96c0 70 20 76 41 76 21 0 41-6 41-76l0-6-82 0z m82-304c0-28-23-61-41-82-18 21-41 54-41 82l0 216 82 0z m-82 236l0 41 82 0 0-41z"/>
<glyph unicode="&#57561;" d="M390 503c-44 26-75-7-101-53l-34-60-11-18-139-243c-26-46-3-129-3-129 0 0 83 21 110 67l183 321c27 46 39 89-5 115z m-196-425c-14-25-51-42-77-52-5 28-8 69 6 93l139 243 71-41z m150 260l-72 42 21 36 71-42z m34 60l-4-6-71 42 3 5c35 62 56 56 74 46 18-11 33-26-2-87z"/>
<glyph unicode="&#57562;" d="M388 501c-40 22-90 10-113-28l-14-24-8-13-115-195-2-2-23-39c0 0 0-1 0-1l-27-45-5-138 29-16 121 73 27 46c0 0 0 0 0 0l140 236 10 17 12 19c22 38 8 87-32 110z m-175-418l-107-57-2 118 11 18 108-61z m51 87l0 0-30-52-109 61 32 53 0 0 114 194 109-61z m137 230l-11-18-108 61 10 18c18 29 56 39 86 22 30-17 40-54 23-83z"/>
<glyph unicode="&#57563;" d="M512 246c0 147-119 266-266 266-7 0-14 0-21-1l0 1-20 0 0-62c-115-11-205-107-205-225l0-20 1 0c10-115 107-205 224-205 53 0 102 19 141 50l29-30 15 15-1 1c62 49 103 124 103 210z m-307 183l0-204-185 0c0 106 81 194 185 204z m20-409c-106 0-193 81-203 185l188 0 141-141c-35-27-78-44-126-44z m0 200l0 271c7 0 14 1 21 1 135 0 246-110 246-246 0-80-39-151-98-195z"/>
<glyph unicode="&#57564;" d="M512 256c0 141-115 256-256 256-141 0-256-115-256-256 0-131 98-239 225-254l0-2 21 0 0 225 266 0 0 21-1 0c1 3 1 7 1 10z m-287-233c-49 6-93 28-128 59l128 128z m266 223l-245 0 0 0-21 0 0 0-143-149c-38 42-62 98-62 159 1 130 106 236 236 236 130 0 235-106 235-236 0-3 0-7 0-10z m-203-246l40 0c167 24 184 164 184 164l0 20-225 0z m19 164l185 0c0-62-123-144-185-144z"/>
<glyph unicode="&#57565;" d="M256 430c-40 0-72-32-72-72 0-39 32-71 72-71 40 0 72 32 72 71 0 40-32 72-72 72z m0-123c-28 0-51 23-51 51 0 29 23 52 51 52 28 0 51-23 51-52 0-28-23-51-51-51z m0 205c-107 0-195-86-195-192 0-106 195-320 195-320 0 0 195 214 195 320 0 106-88 192-195 192z m-174-192c0 95 78 172 174 172 96 0 174-77 174-172 0-74-114-220-174-289-60 69-174 215-174 289z"/>
<glyph unicode="&#57566;" d="M256 430c-40 0-72-32-72-72 0-39 32-71 72-71 40 0 72 32 72 71 0 40-32 72-72 72z m0-123c-28 0-51 23-51 51 0 29 23 52 51 52 28 0 51-23 51-52 0-28-23-51-51-51z m-180-164l26 0 0 21-41 0-61-164 164 0 0 20-134 0z m375 21l-41 0 0-21 26 0 46-123-134 0 0-20 164 0z m-195 348c-107 0-195-86-195-192 0-106 195-320 195-320 0 0 195 214 195 320 0 106-88 192-195 192z m-174-192c0 95 78 172 174 172 96 0 174-77 174-172 0-74-114-220-174-289-60 69-174 215-174 289z"/>
<glyph unicode="&#57567;" d="M217 512l-217-217 31 0 186 186z m-16-47l233-232 16 15-233 233z m79-387l-233 233 77 77-93-93 233-233z m232 170l-56 6-22-22 16-15-155-155-15 16-22-22 6-56 110 110 122-95-94 123z"/>
<glyph unicode="&#57568;" d="M434 233l16 15-233 233-16-16z m-217 279l-217-217 31 0 186 186z m63-434l-233 233 154 154-170-170 233-233z m232 170l-56 6-22-22 16-15-155-155-15 16-22-22 6-56 110 110 123-95-95 123z m-295-108l155 155-15 15-155-155z"/>
<glyph unicode="&#57569;" d="M58 512l0-512 396 256z m23-43l330-213-330-213z"/>
<glyph unicode="&#57570;" d="M501 267l-234 0 0 234c0 6-5 11-11 11-6 0-11-5-11-11l0-234-234 0c-6 0-11-5-11-11 0-6 5-11 11-11l234 0 0-234c0-6 5-11 11-11 6 0 11 5 11 11l0 234 234 0c6 0 11 5 11 11 0 6-5 11-11 11z"/>
<glyph unicode="&#57571;" d="M444 512l-376 0c-37 0-68-31-68-68l0-376c0-37 31-68 68-68l376 0c37 0 68 31 68 68l0 376c0 37-31 68-68 68z m46-445c0-25-20-45-45-45l-378 0c-25 0-45 20-45 45l0 378c0 25 20 45 45 45l378 0c25 0 45-20 45-45z m-123 200l-100 0 0 100c0 6-5 11-11 11-6 0-11-5-11-11l0-100-100 0c-6 0-11-5-11-11 0-6 5-11 11-11l100 0 0-100c0-6 5-11 11-11 6 0 11 5 11 11l0 100 100 0c6 0 11 5 11 11 0 6-5 11-11 11z"/>
<glyph unicode="&#57572;" d="M471 307l-164 0 0 164c0 23-18 41-41 41l-20 0c-23 0-41-18-41-41l0-164-164 0c-23 0-41-18-41-41l0-20c0-23 18-41 41-41l164 0 0-164c0-23 18-41 41-41l20 0c23 0 41 18 41 41l0 164 164 0c23 0 41 18 41 41l0 20c0 23-18 41-41 41z m21-61c0-12-10-21-21-21l-184 0 0-184c0-11-9-21-21-21l-20 0c-12 0-21 10-21 21l0 184-184 0c-11 0-21 9-21 21l0 20c0 12 10 21 21 21l184 0 0 184c0 11 9 21 21 21l20 0c12 0 21-10 21-21l0-184 184 0c11 0 21-9 21-21l0-20z"/>
<glyph unicode="&#57573;" d="M256 512c-141 0-256-115-256-256 0-141 115-256 256-256 141 0 256 115 256 256 0 141-115 256-256 256z m0-490c-129 0-234 105-234 234 0 129 105 234 234 234 129 0 234-105 234-234 0-129-105-234-234-234z m111 245l-100 0 0 100c0 6-5 11-11 11-6 0-11-5-11-11l0-100-100 0c-6 0-11-5-11-11 0-6 5-11 11-11l100 0 0-100c0-6 5-11 11-11 6 0 11 5 11 11l0 100 100 0c6 0 11 5 11 11 0 6-5 11-11 11z"/>
<glyph unicode="&#57574;" d="M327 512l-270 0c-9 0-16-7-16-16l0-480c0-9 7-16 16-16l398 0c9 0 16 7 16 16l0 352z m1-30l113-113-113 0z m123-462l-390 0 0 472 246 0 0-123 0 0 0-21 143 0 0 12 1 0 0-340z m-185 287l-20 0 0-82-82 0 0-20 82 0 0-82 20 0 0 82 82 0 0 20-82 0z"/>
<glyph unicode="&#57575;" d="M492 246l-144 37 0 127c0 34-27 61-61 61-34 0-62-27-62-61l0-135c0 0 0 0 0 0l0-63-15 16c-25 24-65 24-89 0-25-25-25-65 0-90l98-99c7-6 15-11 23-14 5-3 10-4 15-4l223 0c18 0 32 14 32 32l0 159c0 17-20 34-20 34z m0-193c0-7-6-12-12-12l-223 0c-3 0-6 2-8 4-5 2-10 5-15 9l-99 99c-16 17-16 43 0 60 17 16 44 16 60 0l51-51 0 248c0 22 18 41 41 41 22 0 41-19 41-41l0-143 154-40c5-5 9-12 9-15l0-159z m-393 273l-63 63 138 0c6 0 10 5 10 10 0 6-4 11-10 11l-137 0 62 62c5 5 5 12 0 16-4 4-11 4-15 0l-80-80c-2-1-3-4-3-6 0-1-1-2-1-3 0-1 1-1 1-2 0-3 1-5 3-7l80-80c4-4 11-4 15 0 5 5 5 12 0 16z m300 63l82 0c6 0 11 5 11 10 0 6-5 11-11 11l-82 0c-5 0-10-5-10-11 0-5 5-10 10-10z"/>
<glyph unicode="&#57576;" d="M107 405c0 6-5 11-11 11l-85 0c-6 0-11-5-11-11 0-6 5-11 11-11l85 0c6 0 11 5 11 11z m320-160l-150 39 0 132c0 35-28 64-64 64-35 0-64-29-64-64l0-140c0 0 0 0 0 0l0-66-16 16c-25 26-67 26-93 0-25-26-25-67 0-93l103-103c7-7 15-12 24-15 5-3 10-5 15-5l233 0c18 0 33 15 33 34l0 165c0 19-21 36-21 36z m0-201c0-7-6-12-12-12l-233 0c-3 0-6 1-8 4-6 2-11 5-15 10l-103 102c-17 18-17 45 0 63 17 17 45 17 62 0l53-53 0 118c0 0 0 0 0 0l0 140c0 23 19 42 42 42 24 0 43-19 43-42l0-148 160-42c6-6 11-13 11-17z m85 362c0 3-1 6-4 9l-83 83c-5 5-12 5-17 0-4-5-4-12 0-17l66-65-143 0c-6 0-11-5-11-11 0-6 5-11 11-11l143 0-66-65c-4-5-4-12 0-17 5-4 12-4 17 0l83 83c3 3 4 6 4 9 0 0 0 1 0 1 0 0 0 1 0 1z"/>
<glyph unicode="&#57577;" d="M466 256l-163 43 0 143c0 39-32 70-70 70-39 0-70-31-70-70l0-152c0 0 0-1 0-1l0-71-17 17c-28 28-74 28-102 0-28-28-28-73 0-101l112-113c8-7 17-13 26-16 5-3 11-5 17-5l254 0c20 0 36 16 36 36l0 181c0 20-23 39-23 39z m0-220c0-7-6-13-13-13l-254 0c-4 0-7 2-9 5-6 2-12 5-17 10l-112 113c-19 18-19 49 0 67 19 19 49 19 68 0l57-57 0 128c0 0 0 0 0 1l0 152c0 26 21 47 47 47 26 0 46-21 46-47l0-161 175-46c6-6 12-14 12-18z"/>
<glyph unicode="&#57578;" d="M348 452l0-22c73-35 123-109 123-194 0-119-96-216-215-216-119 0-215 97-215 216 0 85 50 159 123 194l0 22c-84-36-144-119-144-216 0-131 106-236 236-236 130 0 236 105 236 236 0 97-60 180-144 216z m-92-165c6 0 10 4 10 10l0 205c0 5-4 10-10 10-6 0-10-5-10-10l0-205c0-6 4-10 10-10z"/>
<glyph unicode="&#57579;" d="M188 279c4-3 10-3 14 0 0 1 0 1 0 1 0 0 0 0 0 0l93 74 96-115c4-4 11-4 15 0 4 4 4 11 0 15l-102 122c0 0 0 0 0 0-2 2-4 3-7 3-3 0-5-1-7-3 0 0 0 0 0 0l-95-76-76 77c-4 3-10 3-14 0-4-4-4-10 0-14z m314 202l-44 0c0 0 0 0 0 0l-404 0c0 0 0 0 0 0l-44 0c-5 0-10-4-10-10 0-6 5-10 10-10l13 0c-2-4-3-7-3-11l0-285c0-18 16-32 34-32l163 0-52-87c-3-5-1-11 4-14 5-3 11-1 14 4l58 97 30 0 58-97c3-5 9-7 14-4 5 3 7 9 4 14l-52 87 163 0c18 0 34 14 34 32l0 285c0 4-1 7-3 11l13 0c5 0 10 4 10 10 0 6-5 10-10 10z m-31-311c0-9-7-16-16-16l-398 0c-9 0-16 7-16 16l0 291 430 0z"/>
<glyph unicode="&#57580;" d="M358 195c6 0 11 4 11 10l0 143c0 6-5 10-11 10-5 0-10-4-10-10l0-143c0-6 5-10 10-10z m-204 0c5 0 10 4 10 10l0 82c0 5-5 10-10 10-6 0-11-5-11-10l0-82c0-6 5-10 11-10z m348 286l-44 0c0 0 0 0 0 0l-404 0c0 0 0 0 0 0l-44 0c-5 0-10-4-10-10 0-6 5-10 10-10l13 0c-2-4-3-7-3-11l0-285c0-18 16-32 34-32l163 0-52-87c-3-5-1-11 4-14 5-3 11-1 14 4l58 97 30 0 58-97c3-5 9-7 14-4 5 3 7 9 4 14l-52 87 163 0c18 0 34 14 34 32l0 285c0 4-1 7-3 11l13 0c5 0 10 4 10 10 0 6-5 10-10 10z m-31-311c0-9-7-16-16-16l-398 0c-9 0-16 7-16 16l0 291 430 0z m-215 25c6 0 10 4 10 10l0 205c0 5-4 10-10 10l0 0c-6 0-10-5-10-10l0-205c0-6 4-10 10-10z"/>
<glyph unicode="&#57581;" d="M480 225l-70 0 0 254c0 18-14 33-31 33l-246 0c-17 0-31-15-31-33l0-254-70 0c-18 0-32-14-32-32l0-99c0-18 14-32 32-32l70 0 0-46c0-9 7-16 16-16l276 0c9 0 16 7 16 16l0 45 70 0c18 0 32 15 32 33l0 99c0 18-14 32-32 32z m-357 250c0 9 7 17 17 17l232 0c10 0 17-8 17-17l0-250-266 0z m266-455l-266 0 0 103 266 0z m102 79c0-9-7-17-16-17l-65 0 0 45c0 9-7 16-16 16l-276 0c-9 0-16-7-16-16l0-45-65 0c-9 0-16 8-16 17l0 89c0 9 7 17 16 17l438 0c9 0 17-8 17-17l0-89z"/>
<glyph unicode="&#57582;" d="M496 410l-107 0 0 102-266 0 0-102-107 0c-9 0-16-7-16-16l0-276c0-9 7-16 16-16l107 0 0-102 266 0 0 102 107 0c9 0 16 7 16 16l0 276c0 9-7 16-16 16z m-353 82l226 0 0-82-226 0z m226-471l-226 0 0 184 226 0z m123 118c0-9-8-16-17-16l-86 0 0 102-266 0 0-102-86 0c-9 0-16 7-16 17l0 232c0 10 7 17 16 17l438 0c9 0 17-7 17-17l0-233z m-431 168l41 0 0 41-41 0z m103 0l41 0 0 41-41 0z"/>
<glyph unicode="&#57583;" d="M61 215l226 0 0 21-226 0z m419 246l-448 0c-18 0-32-14-32-32l0-346c0-18 14-32 32-32l448 0c18 0 32 14 32 32l0 346c0 18-14 32-32 32z m12-369c0-11-10-20-21-20l-430 0c-11 0-21 9-21 20l0 328c0 11 10 20 21 20l430 0c11 0 21-9 21-20l0-328z m-164 184l123 0 0 123-123 0z m20 103l82 0 0-82-82 0z m-287-226l226 0 0 21-226 0z"/>
<glyph unicode="&#57584;" d="M500 285l-44 44c3 2 6 4 8 6 36 36 36 94 0 129-35 36-93 36-129 0-2-2-4-5-6-8l-44 44c-16 16-42 16-58 0l-62-62c9-4 19-9 26-17 28-28 28-73 0-100-27-28-72-28-100 0-8 7-13 17-17 26l-62-62c-16-16-16-42 0-58l215-215c16-16 42-16 58 0l215 215c16 16 16 42 0 58z m-14-43l-216-216c-8-8-20-8-28 0l-216 216c-8 8-8 20 0 28l44 44c2-3 4-5 7-8 35-35 93-35 129 0 35 36 35 94 0 130-3 2-5 4-8 6l44 44c8 8 20 8 28 0l60-60 14 18 2 2c1 2 2 3 3 4 28 28 73 28 101 0 28-28 28-73 0-101-1-1-2-2-4-2l-2-3-18-14 16-16 44-44c8-8 8-20 0-28z"/>
</font>
</defs>
</svg>
